西西论坛

 找回密码
 立即注册
搜索

通行证 Safe.Conduct.2002.FRENCH.1080p.BluRay.x264-EUBDS 16.35GB

[复制链接]
admin 发表于 2021-12-31 09:59:51 | 显示全部楼层 |阅读模式
通行证 Safe.Conduct.2002.FRENCH.1080p.BluRay.x264-EUBDS 16.35GB                                                                                                                                                                                                                                                                                                                                                                                                                                                                                                                                        -->
帖子完整标题:通行证 Safe.Conduct.2002.FRENCH.1080p.BluRay.x264-EUBDS 16.35GB



66902a472a7a2107c4a2c279caea99ed.jpg



◎译  名 通行证/Safe Conduct
◎片  名 Laissez-passer
◎年  代 2002
◎产  地 法国,德国,西班牙
◎类  别 剧情 / 传记 / 历史 / 战争
◎语  言 法语
◎上映日期 2002-01-09
◎豆瓣评分 /10 from 0 users
◎豆瓣链接 
◎片  长 170 分钟
◎导  演 贝特朗·塔维涅 Bertrand Tavernier
◎编  剧 贝特朗·塔维涅 Bertrand Tavernier / 让·科斯莫 Jean Cosmos / 让-德韦夫尔 Jean-Devaivre
◎主  演 雅克·冈布兰 Jacques Gamblin
       德尼·波达利德斯 Denis Podalydès
       菲利普·莫里尔-热努 Philippe Morier-Genoud
       埃里克·莫罗 Eric Moreau
       丹尼尔·朗格莱 Daniel Langlet
       蒂姆·皮戈特-史密斯 Tim Pigott-Smith
       Tania Torrens Tania Torrens
       汉斯·沃那·麦耶 Hans Werner Meyer
       Radu Duda Radu Duda
       夏洛特·卡迪 Charlotte Kady
       托比·塞奇威克 Toby Sedgwick
       罗伯特·格林尼斯特 Robert Glenister
       杰瑞米·查亚德 Jeremy Child
       弗朗索瓦丝·贝特 Fran?oise Bette
       吉德·玛尔隆 Ged Marlon
       奥利维埃·古尔梅 Olivier Gourmet
       塞尔日·里亚布金 Serge Riaboukine
       玛丽·吉兰 Marie Gillain
       戈兹·伯杰 G?tz Burger
       克里斯蒂安·贝克尔 Christian Berkel
       亨利·埃托 Henri Attal
       皮埃尔·贝里劳 Pierre Berriau
       沃尔夫冈·皮索尔斯 Wolfgang Pissors

◎标  签 法国 | 战争 | 2002 | 法国电影 | 二战 | Bertrand_Tavernier | BertrandTavernier | 贝特朗·塔维涅Bertrand.Tavernier

◎简  介

  讲述了在纳粹统治下的两个法国电影制作人所走的不同道路,在巴黎被占领期间,有两个男人都试图生活下去并进行抵抗。每个人都有自己的方式。导演助理约翰.德威尔为了更好地参加由地下组织的抵抗运动,选择了一家德国电影公司即大陆公司工作。另外,生活于三个情人之间的约翰.欧罗奇却顽固地拒绝向德国人妥协,并用他唯一的武器--笔杆子,以诗歌的形式进行抵抗。

◎获奖情况

  第52届柏林国际电影节 ?(2002)
  金熊奖最佳影片(提名) 贝特朗·塔维涅
  银熊奖最佳男演员 雅克·冈布兰
  银熊奖最佳电影配乐 AntoineDuhamel
Video
ID                                       : 1
Format                                   : AVC
Format/Info                              : Advanced Video Codec
Format profile                           :
Format settings                          : CABAC / 5 Ref Frames
Format settings, CABAC                   : Yes
Format settings, Reference frames        : 5 frames
Codec ID                                 : V_MPEG4/ISO/AVC
Duration                                 : 2 h 50 min
Bit rate                                 : 11.3 Mb/s
Width                                    : 1 920 pixels
Height                                   : 804 pixels
Display aspect ratio                     : 2.40:1
Frame rate mode                          : Constant
Frame rate                               : 24.000 FPS
Color space                              : YUV
Chroma subsampling                       : 4:2:0
Bit depth                                : 8 bits
Scan type                                : Progressive
Bits/(Pixel*Frame)                       : 0.305
Stream size                              : 13.4 GiB (82%)
Writing library                          : x264 core 164 r3079 d9a19f0
Encoding settings                        : cabac=1 / ref=5 / deblock=1:-3:-3 / analyse=0x3:0x133 / me=umh / subme=11 / psy=1 / psy_rd=1.02:0.00 / mixed_ref=1 / me_range=32 / chroma_me=1 / trellis=2 / 8x8dct=1 / cqm=0 / deadzone=21,11 / fast_pskip=0 / chroma_qp_offset=-2 / threads=25 / lookahead_threads=6 / sliced_threads=0 / nr=0 / decimate=0 / interlaced=0 / bluray_compat=0 / constrained_intra=0 / bframes=16 / b_pyramid=2 / b_adapt=2 / b_bias=0 / direct=3 / weightb=1 / open_gop=0 / weightp=2 / keyint=250 / keyint_min=24 / scenecut=40 / intra_refresh=0 / rc_lookahead=250 / rc=crf / mbtree=0 / crf=18.9 / qcomp=0.60 / qpmin=0 / qpmax=69 / qpstep=4 / vbv_maxrate=62500 / vbv_bufsize=78125 / crf_max=0.0 / nal_hrd=none / filler=0 / ip_ratio=1.30 / pb_ratio=1.20 / aq=3:0.80
Default                                  : Yes
Forced                                   : No
Color range                              : Limited
Color primaries                          : BT.709
Matrix coefficients                      : BT.709

Audio
ID                                       : 2
Format                                   : DTS XLL
Format/Info                              : Digital Theater Systems
Commercial name                          : DTS-HD Master Audio
Codec ID                                 : A_DTS
Duration                                 : 2 h 50 min
Bit rate mode                            : Variable
Bit rate                                 : 2 388 kb/s
Channel(s)                               : 6 channels
Channel layout                           : C L R Ls Rs LFE
Sampling rate                            : 48.0 kHz
Frame rate                               : 93.750 FPS (512 SPF)
Bit depth                                : 24 bits
Compression mode                         : Lossless
Stream size                              : 2.84 GiB (17%)
Language                                 : French
Default                                  : Yes
Forced                                   : No

Text #1
ID                                       : 3
Format                                   : UTF-8
Codec ID                                 : S_TEXT/UTF8
Codec ID/Info                            : UTF-8 Plain Text
Duration                                 : 2 h 49 min
Bit rate                                 : 53 b/s
Count of elements                        : 2249
Stream size                              : 66.9 KiB (0%)
Language                                 : English
Default                                  : Yes
Forced                                   : Yes

Text #2
ID                                       : 4
Format                                   : PGS
Muxing mode                              : zlib
Codec ID                                 : S_HDMV/PGS
Codec ID/Info                            : Picture based subtitle format used on BDs/HD-DVDs
Duration                                 : 2 h 49 min
Bit rate                                 : 35.1 kb/s
Count of elements                        : 4498
Stream size                              : 42.5 MiB (0%)
Language                                 : English
Default                                  : No
Forced                                   : No

Text #3
ID                                       : 5
Format                                   : PGS
Muxing mode                              : zlib
Codec ID                                 : S_HDMV/PGS
Codec ID/Info                            : Picture based subtitle format used on BDs/HD-DVDs
Duration                                 : 2 h 50 min
Bit rate                                 : 39.7 kb/s
Count of elements                        : 5755
Stream size                              : 48.3 MiB (0%)
Language                                 : French
Default                                  : No
Forced                                   : No

Text #4
ID                                       : 6
Format                                   : PGS
Muxing mode                              : zlib
Codec ID                                 : S_HDMV/PGS
Codec ID/Info                            : Picture based subtitle format used on BDs/HD-DVDs
Duration                                 : 3 min 44 s
Bit rate                                 : 9 493 b/s
Count of elements                        : 28
Stream size                              : 261 KiB (0%)
Language                                 : French
Default                                  : No
Forced                                   : No

Text #5
ID                                       : 7
Format                                   : PGS
Muxing mode                              : zlib
Codec ID                                 : S_HDMV/PGS
Codec ID/Info                            : Picture based subtitle format used on BDs/HD-DVDs
Duration                                 : 2 h 45 min
Bit rate                                 : 56.1 kb/s
Count of elements                        : 5166
Stream size                              : 66.4 MiB (0%)
Language                                 : German
Default                                  : No
Forced                                   : No

Text #6
ID                                       : 8
Format                                   : PGS
Muxing mode                              : zlib
Codec ID                                 : S_HDMV/PGS
Codec ID/Info                            : Picture based subtitle format used on BDs/HD-DVDs
Duration                                 : 2 h 30 min
Bit rate                                 : 2 128 b/s
Count of elements                        : 188
Stream size                              : 2.29 MiB (0%)
Language                                 : German
Default                                  : No
Forced                                   : No

Menu
00:00:00.000                             : :Chapter 01
00:15:44.917                             : :Chapter 02
00:31:33.125                             : :Chapter 03
00:46:53.708                             : :Chapter 04
01:01:47.000                             : :Chapter 05
01:26:55.500                             : :Chapter 06
01:32:26.625                             : :Chapter 07
01:49:27.542                             : :Chapter 08
02:04:50.708                             : :Chapter 09
02:19:54.250                             : :Chapter 10
02:34:10.625                             : :Chapter 11
02:46:06.000                             : :Chapter 12

83c0216f2db35116b5936b2be0c758f8.png

[/url]



                                                                                                                                                                                                        
                                                                                                                                                                                                                                                                                                                                                                                                                                                                                                                                                                                                                                                                                                                                                                                                                                                        
5bfcd561e54f1bd98c6d2abb8396fb75.torrent (21.13 KB, 下载次数: 0)

回复

使用道具 举报

小黑屋|西西论坛

本网站所有资源来自网络,如无意中侵犯了您的权益,请发邮件至 [email protected],立即清除相关链接

GMT+8, 2022-6-27 04:10 , Processed in 0.119917 second(s), 22 queries .

Powered by Discuz! X3.2

© 2001-2013 Comsenz Inc.

快速回复 返回顶部 返回列表