西西论坛

 找回密码
 立即注册
搜索

日落:隐居的吸血鬼 Sundown.The.Vampire.in.Retreat.1989.1080p.BluRay.x264-PEGASUS ...

[复制链接]
admin 发表于 2021-12-31 09:59:48 | 显示全部楼层 |阅读模式
日落:隐居的吸血鬼 Sundown.The.Vampire.in.Retreat.1989.1080p.BluRay.x264-PEGASUS 10.59GB                                                                                                                                                                                                                                                                                                                                                                                                                                                                                                                                        -->
帖子完整标题:日落:隐居的吸血鬼 Sundown.The.Vampire.in.Retreat.1989.1080p.BluRay.x264-PEGASUS 10.59GB



7aa67f12140719ae9428b0ea89f1cca7.jpg



◎译  名 日落:隐居的吸血鬼/Sunset: Vampires in exile
◎片  名 Sundown: The Vampire in Retreat
◎年  代 1989
◎产  地 美国
◎类  别 喜剧 / 恐怖 / 西部
◎语  言 英语
◎上映日期 1989-05(戛纳电影节)
◎豆瓣评分 /10 from 0 users
◎豆瓣链接 
◎片  长 104 分钟
◎导  演 安东尼·希科克斯 Anthony Hickox
◎编  剧 安东尼·希科克斯 Anthony Hickox
◎主  演 大卫·卡拉丁 David Carradine
       摩根·布尼塔尼 Morgan Brittany
       布鲁斯·坎贝尔 Bruce Campbell
       吉姆·梅茨勒 Jim Metzler
       麦克西维尔·考菲德 Maxwell Caulfield
       德博拉·福尔曼 Deborah Foreman
       M·埃梅特·沃尔什 M. Emmet Walsh
       约翰·爱尔兰 John Ireland
       达纳·艾希布鲁克 Dana Ashbrook
       约翰·汉考克 John Hancock
       马里恩·伊顿 Marion Eaton
       Sunshine Parker Sunshine Parker
       伯特·莱姆森 Bert Remsen
       乔治·“巴克”·弗劳尔 George 'Buck' Flower
       Gerardo Mejía Gerardo Mejía
       Christopher Bradley Christopher Bradley
       伊丽莎白·格瑞斯 Elizabeth Gracen
       Jack Eiseman Jack Eiseman
       戴布思·格里尔 Dabbs Greer

◎标  签 恐怖 | 喜剧 | 惊悚 | 美国 | 打点

◎简  介

  Reclusive vampires lounge in a lonely American town. They wear sun cream to protect themselves. A descendant of Van Helsing arrives with hilarious consequences.
Video
ID                                       : 1
Format                                   : AVC
Format/Info                              : Advanced Video Codec
Format profile                           :
Format settings                          : CABAC / 5 Ref Frames
Format settings, CABAC                   : Yes
Format settings, Reference frames        : 5 frames
Codec ID                                 : V_MPEG4/ISO/AVC
Duration                                 : 1 h 44 min
Bit rate                                 : 13.0 Mb/s
Width                                    : 1 920 pixels
Height                                   : 812 pixels
Display aspect ratio                     : 2.35:1
Frame rate mode                          : Constant
Frame rate                               : 23.976 (24000/1001/189150) FPS
Color space                              : YUV
Chroma subsampling                       : 4:2:0
Bit depth                                : 8 bits
Scan type                                : Progressive
Bits/(Pixel*Frame)                       : 0.347
Stream size                              : 9.44 GiB (89%)
Writing library                          : x264 core 164 r3079 d9a19f0
Encoding settings                        : cabac=1 / ref=5 / deblock=1:-3:-3 / analyse=0x3:0x133 / me=umh / subme=11 / psy=1 / psy_rd=1.02:0.00 / mixed_ref=1 / me_range=32 / chroma_me=1 / trellis=2 / 8x8dct=1 / cqm=0 / deadzone=21,11 / fast_pskip=0 / chroma_qp_offset=-2 / threads=25 / lookahead_threads=6 / sliced_threads=0 / nr=0 / decimate=0 / interlaced=0 / bluray_compat=0 / constrained_intra=0 / bframes=16 / b_pyramid=2 / b_adapt=2 / b_bias=0 / direct=3 / weightb=1 / open_gop=0 / weightp=2 / keyint=250 / keyint_min=23 / scenecut=40 / intra_refresh=0 / rc_lookahead=250 / rc=crf / mbtree=0 / crf=15.8 / qcomp=0.60 / qpmin=0 / qpmax=69 / qpstep=4 / vbv_maxrate=62500 / vbv_bufsize=78125 / crf_max=0.0 / nal_hrd=none / filler=0 / ip_ratio=1.30 / pb_ratio=1.20 / aq=3:0.80
Default                                  : Yes
Forced                                   : No
Color range                              : Limited
Color primaries                          : BT.709
Matrix coefficients                      : BT.709

Audio #1
ID                                       : 2
Format                                   : FLAC
Format/Info                              : Free Lossless Audio Codec
Codec ID                                 : A_FLAC
Duration                                 : 1 h 44 min
Bit rate mode                            : Variable
Bit rate                                 : 1 339 kb/s
Channel(s)                               : 2 channels
Channel layout                           : L R
Sampling rate                            : 48.0 kHz
Frame rate                               : 11.719 FPS (4096 SPF)
Bit depth                                : 24 bits
Compression mode                         : Lossless
Stream size                              : 999 MiB (9%)
Writing library                          : libFLAC 1.2.1 (UTC 2007-09-17)
Language                                 : English
Default                                  : Yes
Forced                                   : No

Audio #2
ID                                       : 3
Format                                   : AAC LC
Format/Info                              : Advanced Audio Codec Low Complexity
Codec ID                                 : A_AAC-2
Duration                                 : 1 h 44 min
Bit rate                                 : 91.2 kb/s
Channel(s)                               : 2 channels
Channel layout                           : L R
Sampling rate                            : 48.0 kHz
Frame rate                               : 46.875 FPS (1024 SPF)
Compression mode                         : Lossy
Stream size                              : 68.0 MiB (1%)
Title                                    : Commentary with Anthony Hickox, Levie Isaacks and Michael Felsher
Language                                 : English
Default                                  : No
Forced                                   : No

Audio #3
ID                                       : 4
Format                                   : AAC LC
Format/Info                              : Advanced Audio Codec Low Complexity
Codec ID                                 : A_AAC-2
Duration                                 : 1 h 44 min
Bit rate                                 : 104 kb/s
Channel(s)                               : 2 channels
Channel layout                           : L R
Sampling rate                            : 48.0 kHz
Frame rate                               : 46.875 FPS (1024 SPF)
Compression mode                         : Lossy
Stream size                              : 77.7 MiB (1%)
Title                                    : Isolated Score Selections with Randall Larson, Jefferson Richard and Michael Felsher
Language                                 : English
Default                                  : No
Forced                                   : No

Text #1
ID                                       : 5
Format                                   : UTF-8
Codec ID                                 : S_TEXT/UTF8
Codec ID/Info                            : UTF-8 Plain Text
Duration                                 : 1 h 36 min
Bit rate                                 : 51 b/s
Count of elements                        : 1332
Stream size                              : 36.5 KiB (0%)
Language                                 : English
Default                                  : No
Forced                                   : No

Text #2
ID                                       : 6
Format                                   : PGS
Muxing mode                              : zlib
Codec ID                                 : S_HDMV/PGS
Codec ID/Info                            : Picture based subtitle format used on BDs/HD-DVDs
Duration                                 : 1 h 36 min
Bit rate                                 : 32.5 kb/s
Count of elements                        : 2664
Stream size                              : 22.5 MiB (0%)
Language                                 : English
Default                                  : No
Forced                                   : No

Text #3
ID                                       : 7
Format                                   : UTF-8
Codec ID                                 : S_TEXT/UTF8
Codec ID/Info                            : UTF-8 Plain Text
Duration                                 : 1 h 42 min
Bit rate                                 : 58 b/s
Count of elements                        : 1637
Stream size                              : 43.7 KiB (0%)
Title                                    : SDH
Language                                 : English
Default                                  : No
Forced                                   : No

Text #4
ID                                       : 8
Format                                   : PGS
Muxing mode                              : zlib
Codec ID                                 : S_HDMV/PGS
Codec ID/Info                            : Picture based subtitle format used on BDs/HD-DVDs
Duration                                 : 1 h 42 min
Bit rate                                 : 36.6 kb/s
Count of elements                        : 3274
Stream size                              : 26.8 MiB (0%)
Title                                    : SDH
Language                                 : English
Default                                  : No
Forced                                   : No

Text #5
ID                                       : 9
Format                                   : PGS
Muxing mode                              : zlib
Codec ID                                 : S_HDMV/PGS
Codec ID/Info                            : Picture based subtitle format used on BDs/HD-DVDs
Duration                                 : 1 h 43 min
Bit rate                                 : 30.1 kb/s
Count of elements                        : 2320
Stream size                              : 22.2 MiB (0%)
Language                                 : Spanish
Default                                  : No
Forced                                   : No

Menu
00:00:00.000                             : :Chapter 01
00:08:28.717                             : :Chapter 02
00:17:36.430                             : :Chapter 03
00:27:13.632                             : :Chapter 04
00:36:04.329                             : :Chapter 05
00:43:27.021                             : :Chapter 06
00:54:15.586                             : :Chapter 07
01:01:19.759                             : :Chapter 08
01:13:36.203                             : :Chapter 09
01:20:34.038                             : :Chapter 10
01:29:45.880                             : :Chapter 11
01:38:37.328                             : :Chapter 12

92b5663f8b77ec64bb112dea7eeffe25.jpg





                                                                                                                                                                                                        
                                                                                                                                                                                                                                                                                                                                                                                                                                                                                                                                                                                                                                                                                                                                                                                                                                                        
07cac706cf43dbc142e7a6ecbef1f2e7.torrent (14.02 KB, 下载次数: 0)

回复

使用道具 举报

小黑屋|西西论坛

本网站所有资源来自网络,如无意中侵犯了您的权益,请发邮件至 [email protected],立即清除相关链接

GMT+8, 2022-1-20 03:39 , Processed in 0.155551 second(s), 17 queries .

Powered by Discuz! X3.2

© 2001-2013 Comsenz Inc.

快速回复 返回顶部 返回列表