西西论坛

 找回密码
 立即注册
搜索

士兵布兰克 White.Soldier.2014.FRENCH.1080p.BluRay.x264.FLAC2.0-SbR 17.03GB

[复制链接]
admin 发表于 2021-12-31 09:59:44 | 显示全部楼层 |阅读模式
士兵布兰克 White.Soldier.2014.FRENCH.1080p.BluRay.x264.FLAC2.0-SbR 17.03GB                                                                                                                                                                                                                                                                                                                                                                                                                                                                                                                                        -->
帖子完整标题:士兵布兰克 White.Soldier.2014.FRENCH.1080p.BluRay.x264.FLAC2.0-SbR 17.03GB



c9f3b918f5f3f40abe1a4f9be92d6dcf.jpg



◎译  名 士兵布兰克/White Soldier
◎片  名 Soldat blanc
◎年  代 2014
◎产  地 法国
◎类  别 剧情 / 战争
◎语  言 法语
◎上映日期 2014-09-08(法国)
◎豆瓣评分 /10 from 0 users
◎豆瓣链接 
◎片  长 146分钟
◎导  演 埃瑞克·宗卡 Erick Zonca
◎编  剧 奥利维尔·洛雷勒 Olivier Lorelle / 埃瑞克·宗卡 Erick Zonca
◎主  演 亚伯拉罕·布拉甲 Abraham Belaga
       埃米尔·贝宁 Emile Berling
       保罗·斯佩拉 Paul Spera
       布鲁诺·洛普斯 Kool Shen
       塞缪尔·巴托林 Samuel Bartholin
       爱德华·福克雷 Edouard Fouqueray
       贝莱娜·温 Béléina Win
       朱利安·狄瑞恩 Julien Drion
       多米尼克·恩格哈特 Dominique Engelhardt

◎标  签 法国电影 | 法国 | 剧情 | 电影 | 犯罪 | 法國電影 | 欧洲 | 战争

◎简  介

  A muggy Saigon, late 1945. Stationed at a military camp in French Indochina, two young men--Robert and André--become close friends as they share the boredom and excitement of waiting for their first mission. But when they discover that instead of freeing Indochina from foreign aggressors, they will be fighting natives struggling for independence, their friendship is jeopardized. Andre is shattered, but Robert is unfazed. He'll fight any enemy of France, to the death. While Robert is assigned to lead a commando operation against the Viet Minh, Andre chooses to join the freedom fighters. They've chosen their sides, once friends they must now be enemies. Their paths diverge--until the day they come face to face again. At a detention camp for French prisoners, André spots a prisoner who looks a lot like Robert.
Video
ID                                       : 1
Format                                   : AVC
Format/Info                              : Advanced Video Codec
Format profile                           :
Format settings                          : CABAC / 4 Ref Frames
Format settings, CABAC                   : Yes
Format settings, Reference frames        : 4 frames
Codec ID                                 : V_MPEG4/ISO/AVC
Duration                                 : 2 h 25 min
Bit rate                                 : 16.2 Mb/s
Width                                    : 1 918 pixels
Height                                   : 804 pixels
Display aspect ratio                     : 2.40:1
Frame rate mode                          : Constant
Frame rate                               : 25.000 FPS
Color space                              : YUV
Chroma subsampling                       : 4:2:0
Bit depth                                : 8 bits
Scan type                                : Progressive
Bits/(Pixel*Frame)                       : 0.419
Stream size                              : 16.4 GiB (96%)
Writing library                          : x264 core 164 r3079+60M cd8c3e1 devel [(8 & 10) X86_64]
Encoding settings                        : cabac=1 / ref=4 / deblock=1:-3:-3 / analyse=0x3:0x133 / me=umh / subme=11 / psy=1 / fade_compensate=0.00 / psy_rd=1.00:0.00 / mixed_ref=1 / me_range=32 / chroma_me=1 / trellis=2 / 8x8dct=1 / cqm=0 / deadzone=21,11 / fast_pskip=1 / chroma_qp_offset=-2 / threads=32 / lookahead_threads=6 / sliced_threads=0 / nr=0 / decimate=1 / interlaced=0 / bluray_compat=0 / constrained_intra=0 / fgo=0 / bframes=10 / b_pyramid=2 / b_adapt=2 / b_bias=0 / direct=3 / weightb=1 / open_gop=0 / weightp=2 / keyint=250 / keyint_min=25 / scenecut=40 / intra_refresh=0 / rc=crf / mbtree=0 / crf=16.0000 / qcomp=0.65 / qpmin=0:0:0 / qpmax=69:69:69 / qpstep=4 / ip_ratio=1.25 / pb_ratio=1.20 / aq=1:0.60 / aq-sensitivity=10.00 / aq-factor=1.00:1.00:1.00 / aq2=0 / aq3=0
Language                                 : French
Default                                  : Yes
Forced                                   : No

Audio
ID                                       : 2
Format                                   : FLAC
Format/Info                              : Free Lossless Audio Codec
Codec ID                                 : A_FLAC
Duration                                 : 2 h 25 min
Bit rate mode                            : Variable
Bit rate                                 : 611 kb/s
Channel(s)                               : 2 channels
Channel layout                           : L R
Sampling rate                            : 48.0 kHz
Frame rate                               : 11.719 FPS (4096 SPF)
Bit depth                                : 16 bits
Compression mode                         : Lossless
Stream size                              : 635 MiB (4%)
Writing library                          : libFLAC 1.3.3 (UTC 2019-08-04)
Language                                 : French
Default                                  : Yes
Forced                                   : No

Text #1
ID                                       : 3
Format                                   : ASS
Codec ID                                 : S_TEXT/ASS
Codec ID/Info                            : Advanced Sub Station Alpha
Duration                                 : 2 h 25 min
Bit rate                                 : 95 b/s
Count of elements                        : 1534
Compression mode                         : Lossless
Stream size                              : 101 KiB (0%)
Language                                 : Russian
Default                                  : No
Forced                                   : No

Text #2
ID                                       : 4
Format                                   : UTF-8
Codec ID                                 : S_TEXT/UTF8
Codec ID/Info                            : UTF-8 Plain Text
Duration                                 : 2 h 25 min
Bit rate                                 : 63 b/s
Count of elements                        : 1534
Stream size                              : 68.0 KiB (0%)
Language                                 : Russian
Default                                  : No
Forced                                   : No

Text #3
ID                                       : 5
Format                                   : ASS
Codec ID                                 : S_TEXT/ASS
Codec ID/Info                            : Advanced Sub Station Alpha
Duration                                 : 2 h 25 min
Bit rate                                 : 70 b/s
Count of elements                        : 1534
Compression mode                         : Lossless
Stream size                              : 75.1 KiB (0%)
Language                                 : English
Default                                  : No
Forced                                   : No

Text #4
ID                                       : 6
Format                                   : UTF-8
Codec ID                                 : S_TEXT/UTF8
Codec ID/Info                            : UTF-8 Plain Text
Duration                                 : 2 h 25 min
Bit rate                                 : 39 b/s
Count of elements                        : 1534
Stream size                              : 41.7 KiB (0%)
Language                                 : English
Default                                  : No
Forced                                   : No

Text #5
ID                                       : 7
Format                                   : ASS
Codec ID                                 : S_TEXT/ASS
Codec ID/Info                            : Advanced Sub Station Alpha
Duration                                 : 2 h 25 min
Bit rate                                 : 128 b/s
Count of elements                        : 2024
Compression mode                         : Lossless
Stream size                              : 137 KiB (0%)
Language                                 : French
Default                                  : No
Forced                                   : No

Text #6
ID                                       : 8
Format                                   : UTF-8
Codec ID                                 : S_TEXT/UTF8
Codec ID/Info                            : UTF-8 Plain Text
Duration                                 : 2 h 24 min
Bit rate                                 : 42 b/s
Count of elements                        : 1468
Stream size                              : 44.8 KiB (0%)
Title                                    : Eclair
Language                                 : French
Default                                  : No
Forced                                   : No

Text #7
ID                                       : 9
Format                                   : UTF-8
Codec ID                                 : S_TEXT/UTF8
Codec ID/Info                            : UTF-8 Plain Text
Duration                                 : 2 h 25 min
Bit rate                                 : 40 b/s
Count of elements                        : 1541
Stream size                              : 43.0 KiB (0%)
Language                                 : Dutch
Default                                  : No
Forced                                   : No

Text #8
ID                                       : 10
Format                                   : UTF-8
Codec ID                                 : S_TEXT/UTF8
Codec ID/Info                            : UTF-8 Plain Text
Duration                                 : 2 h 25 min
Bit rate                                 : 38 b/s
Count of elements                        : 1527
Stream size                              : 41.5 KiB (0%)
Language                                 : German
Default                                  : No
Forced                                   : No

Menu
00:00:00.000                             : en:Chapter 01
00:12:23.160                             : en:Chapter 02
00:24:04.440                             : en:Chapter 03
00:37:39.160                             : en:Chapter 04
00:47:36.120                             : en:Chapter 05
00:59:05.800                             : en:Chapter 06
01:12:51.240                             : en:Chapter 07
01:23:36.720                             : en:Chapter 08
01:34:51.000                             : en:Chapter 09
01:47:04.400                             : en:Chapter 10
01:59:39.480                             : en:Chapter 11
02:10:29.560                             : en:Chapter 12

1ec949bbbb96368c02c7e1a5a52dc157.png

[/url]1f51e0ffd46e8a579436a29bd8bb1520.png

[/url]65b7244153fd816e186ccf94b024aaf4.png

[/url]



                                                                                                                                                                                                        
                                                                                                                                                                                                                                                                                                                                                                                                                                                                                                                                                                                                                                                                                                                                                                                                                                                        
d7bea50b4ef925c37663ce0dad41d8f9.torrent (21.91 KB, 下载次数: 0)

回复

使用道具 举报

小黑屋|西西论坛

本网站所有资源来自网络,如无意中侵犯了您的权益,请发邮件至 [email protected],立即清除相关链接

GMT+8, 2022-6-27 03:58 , Processed in 0.165571 second(s), 17 queries .

Powered by Discuz! X3.2

© 2001-2013 Comsenz Inc.

快速回复 返回顶部 返回列表