西西论坛

 找回密码
 立即注册
搜索

85年盛夏/85年的夏天 Summer.of.85.2020.1080p.BluRay.x264-USURY 13.45GB

[复制链接]
admin 发表于 2021-12-29 10:58:52 | 显示全部楼层 |阅读模式
85年盛夏/85年的夏天 Summer.of.85.2020.1080p.BluRay.x264-USURY 13.45GB                                                                                                                                                                                                                                                                                                                                                                                                                                                                                                                                        -->
帖子完整标题:85年盛夏/85年的夏天 Summer.of.85.2020.1080p.BluRay.x264-USURY 13.45GB



9605659ca308c833958fc891f311ce8f.jpg



◎译  名 85年盛夏/85年的夏天(台)/Eté 84/Summer of 84/Summer of 85/八五盛夏/八四盛夏
◎片  名 Eté 85
◎年  代 2020
◎产  地 法国,比利时
◎类  别 剧情 / 同性
◎语  言 法语
◎上映日期 2020-07-14(法国)
◎豆瓣评分 6.9/10 from 12639 users
◎豆瓣链接 
◎片  长 100分钟
◎导  演 弗朗索瓦·欧容 Fran?ois Ozon
◎编  剧 艾丹·钱伯斯 Aidan Chambers / 弗朗索瓦·欧容 Fran?ois Ozon
◎主  演 菲利克斯·勒费弗尔 Félix Lefebvre
       本杰明·瓦赞 Benjamin Voisin
       菲莉皮娜·维莱芝 Philippine Velge
       瓦莱丽亚·布鲁尼·泰德斯基 Valeria Bruni Tedeschi
       梅尔维尔·珀波 Melvil Poupaud
       伊莎贝尔·南蒂 Isabelle Nanty
       洛朗·费尔南德斯 Laurent Fernandez
       奥罗拉·布鲁坦 Aurore Broutin
       布鲁诺·洛歇 Bruno Lochet
       约恩·齐默 Yoann Zimmer
       安托万·西蒙尼 Antoine Simoni
       帕特里克·齐默尔曼 Patrick Zimmermann
       塞缪尔·博拉夫曼-芒蒂尔 Samuel Brafman-Moutier

◎标  签 同性 | 法国 | 青春 | 2020 | 爱情 | 夏天 | 文艺 | 成长

◎简  介

  亚历克西斯(菲利克斯·勒费弗尔 Félix Lefebvre 饰)是一位精力旺盛,向往自由的少年。一天,在独自出海的过程中,亚历克西斯遭遇了意外,所幸得到了大卫(本杰明·沃辛 Benjamin Voisin 饰)的出手相救才逃过了一劫。这次事件让两个少年迅速建立了深厚的友谊,他们一个放荡不羁古灵精怪,一个沉着稳重心思细腻,简直就是天作之合。
  
  然而,当一个名叫凯特(菲莉皮娜·维莱芝 Philippine Velge 饰)的女孩出现在两人的生活中时,亚历克西斯和大卫之间的关系开始慢慢出现裂痕。在一次激烈的争吵中,亚历克西斯负气出走,不放心他的大卫驱车在后面追赶,哪知道因此遭遇了车祸命丧黄泉。

◎获奖情况

  第73届戛纳电影节 ?(2020)
  入选过戛纳导演作品(提名)
  
  第33届欧洲电影奖 ?(2020)
  最佳导演(提名) 弗朗索瓦·欧容
  
  第46届法国凯撒电影奖 ?(2021)
  最佳影片(提名)
  最佳导演(提名) 弗朗索瓦·欧容
  最佳女配角(提名) 瓦莱丽亚·布鲁尼·泰德斯基
  最佳新人男演员(提名) 菲利克斯·勒费弗尔?/?本杰明·瓦赞
  最佳改编剧本(提名)
  最佳摄影(提名)
  最佳剪辑(提名)
  最佳原创音乐(提名)
  最佳音效(提名)
  最佳服装(提名)
  最佳布景(提名)
  
  第68届圣塞巴斯蒂安国际电影节 ?(2020)
  金贝壳奖(提名) 弗朗索瓦·欧容
  
  第24届美国在线影评人协会奖 ?(2021)
  最佳非北美上映影片
Video
ID                                       : 1
Format                                   : AVC
Format/Info                              : Advanced Video Codec
Format profile                           :
Format settings                          : CABAC / 4 Ref Frames
Format settings, CABAC                   : Yes
Format settings, Reference frames        : 4 frames
Codec ID                                 : V_MPEG4/ISO/AVC
Duration                                 : 1 h 41 min
Bit rate                                 : 17.2 Mb/s
Width                                    : 1 920 pixels
Height                                   : 1 036 pixels
Display aspect ratio                     : 1.85:1
Frame rate mode                          : Constant
Frame rate                               : 23.976 (24000/1001/189150) FPS
Color space                              : YUV
Chroma subsampling                       : 4:2:0
Bit depth                                : 8 bits
Scan type                                : Progressive
Bits/(Pixel*Frame)                       : 0.360
Stream size                              : 12.1 GiB (90%)
Writing library                          : x264 core 164 r3079 d9a19f0
Encoding settings                        : cabac=1 / ref=4 / deblock=1:-3:-3 / analyse=0x3:0x133 / me=umh / subme=10 / psy=1 / psy_rd=1.00:0.15 / mixed_ref=1 / me_range=24 / chroma_me=1 / trellis=2 / 8x8dct=1 / cqm=0 / deadzone=21,11 / fast_pskip=1 / chroma_qp_offset=-3 / threads=18 / lookahead_threads=3 / sliced_threads=0 / nr=0 / decimate=1 / interlaced=0 / bluray_compat=0 / constrained_intra=0 / bframes=8 / b_pyramid=2 / b_adapt=2 / b_bias=0 / direct=3 / weightb=1 / open_gop=0 / weightp=2 / keyint=250 / keyint_min=23 / scenecut=40 / intra_refresh=0 / rc_lookahead=60 / rc=crf / mbtree=1 / crf=19.0 / qcomp=0.60 / qpmin=0 / qpmax=69 / qpstep=4 / ip_ratio=1.40 / aq=3:0.50
Language                                 : English
Default                                  : Yes
Forced                                   : No

Audio
ID                                       : 2
Format                                   : DTS XLL
Format/Info                              : Digital Theater Systems
Commercial name                          : DTS-HD Master Audio
Codec ID                                 : A_DTS
Duration                                 : 1 h 41 min
Bit rate mode                            : Variable
Bit rate                                 : 1 874 kb/s
Channel(s)                               : 6 channels
Channel layout                           : C L R Ls Rs LFE
Sampling rate                            : 48.0 kHz
Frame rate                               : 93.750 FPS (512 SPF)
Bit depth                                : 24 bits
Compression mode                         : Lossless
Stream size                              : 1.32 GiB (10%)
Language                                 : French
Default                                  : Yes
Forced                                   : No

Text #1
ID                                       : 3
Format                                   : UTF-8
Codec ID                                 : S_TEXT/UTF8
Codec ID/Info                            : UTF-8 Plain Text
Duration                                 : 1 h 37 min
Bit rate                                 : 50 b/s
Count of elements                        : 1341
Stream size                              : 35.8 KiB (0%)
Title                                    : English
Language                                 : English
Default                                  : Yes
Forced                                   : Yes

Text #2
ID                                       : 4
Format                                   : PGS
Muxing mode                              : zlib
Codec ID                                 : S_HDMV/PGS
Codec ID/Info                            : Picture based subtitle format used on BDs/HD-DVDs
Duration                                 : 1 h 37 min
Bit rate                                 : 12.6 kb/s
Count of elements                        : 2682
Stream size                              : 8.78 MiB (0%)
Title                                    : English
Language                                 : English
Default                                  : No
Forced                                   : No

Menu
00:00:00.000                             : en:00:00:00.000
00:07:41.961                             : en:00:07:41.961
00:14:38.753                             : en:00:14:38.753
00:22:48.701                             : en:00:22:48.701
00:28:10.564                             : en:00:28:10.564
00:35:59.074                             : en:00:35:59.074
00:42:21.205                             : en:00:42:21.205
00:50:35.449                             : en:00:50:35.449
01:01:01.867                             : en:01:01:01.867
01:06:38.953                             : en:01:06:38.953
01:14:17.495                             : en:01:14:17.495
01:24:27.104                             : en:01:24:27.104
01:30:59.329                             : en:01:30:59.329
01:38:09.050                             : en:01:38:09.050

a62bf9a202de70defebdf812eb393da9.jpg





                                                                                                                                                                                                        
                                                                                                                                                                                                                                                                                                                                                                                                                                                                                                                                                                                                                                                                                                                                                                                                                                                        
ce615062934943966539e80e0e9b709e.torrent (17.62 KB, 下载次数: 0)

回复

使用道具 举报

小黑屋|西西论坛

本网站所有资源来自网络,如无意中侵犯了您的权益,请发邮件至 [email protected],立即清除相关链接

GMT+8, 2022-1-20 04:25 , Processed in 0.127446 second(s), 17 queries .

Powered by Discuz! X3.2

© 2001-2013 Comsenz Inc.

快速回复 返回顶部 返回列表