西西论坛

 找回密码
 立即注册
搜索

原野四十九日 Seven.Weeks.2014.1080p.BluRay.x264-BiPOLAR 16.41GB

[复制链接]
admin 发表于 2021-12-29 10:58:49 | 显示全部楼层 |阅读模式
原野四十九日 Seven.Weeks.2014.1080p.BluRay.x264-BiPOLAR 16.41GB                                                                                                                                                                                                                                                                                                                                                                                                                                                                                                                                        -->
帖子完整标题:原野四十九日 Seven.Weeks.2014.1080p.BluRay.x264-BiPOLAR 16.41GB



f809a0031899a681290a485a9f38232c.jpg



◎译  名 原野四十九日/Seven Weeks/四十九天
◎片  名 野のなななのか
◎年  代 2014
◎产  地 日本
◎类  别 剧情
◎语  言 日语
◎上映日期 2014-03-02(夕张国际电影节) / 2014-05-17(日本) / 2014-06-14(上海国际电影节)
◎豆瓣评分 7.4/10 from 737 users
◎豆瓣链接 
◎片  长 171分钟
◎导  演 大林宣彦 Nobuhiko Obayashi
◎编  剧 长谷川孝治 K?ji Hasegawa / 大林宣彦 Nobuhiko Obayashi / 内藤忠司 Tadashi Nait?
◎主  演 品川彻 T?ru Shinagawa
       常盘贵子 Takako Tokiwa
       村田雄浩 Takehiro Murata
       寺岛咲 Saki Terashima
       松重丰 Yutaka Matsushige
       洼冢俊介 Shunsuke Kubozuka
       山崎纮菜 Hirona Yamazaki
       细山田隆人 Takato Hosoyamada
       根岸季衣 Toshie Negishi
       原田夏希 Natsuki Harada
       左时枝 Tokie Hidari
       安达祐实 Yumi Adachi
       伊藤孝雄 Takao Ito
       斉藤とも子 Tomoko Sait?

◎标  签 日本 | 2014 | 剧情 | 爱情 | 旬报十佳 | 战争 | SIFF | 映画

◎简  介

  92岁的铃木光男离世,为了筹备他的遗体告别式和葬礼,铃木家星散在各地的子孙相继回到了他们的故乡……
  
  根据内藤忠司的原作改编,2014年“电影旬报”十佳第四。
Video
ID                                       : 1
Format                                   : AVC
Format/Info                              : Advanced Video Codec
Format profile                           :
Format settings                          : CABAC / 4 Ref Frames
Format settings, CABAC                   : Yes
Format settings, Reference frames        : 4 frames
Codec ID                                 : V_MPEG4/ISO/AVC
Duration                                 : 2 h 51 min
Bit rate                                 : 10.4 Mb/s
Width                                    : 1 920 pixels
Height                                   : 1 040 pixels
Display aspect ratio                     : 1.85:1
Frame rate mode                          : Constant
Frame rate                               : 23.976 (24000/1001/189150) FPS
Color space                              : YUV
Chroma subsampling                       : 4:2:0
Bit depth                                : 8 bits
Scan type                                : Progressive
Bits/(Pixel*Frame)                       : 0.216
Stream size                              : 12.4 GiB (76%)
Writing library                          : x264 core 164 r3079 d9a19f0
Encoding settings                        : cabac=1 / ref=4 / deblock=1:-3:-3 / analyse=0x3:0x133 / me=umh / subme=10 / psy=1 / psy_rd=1.00:0.15 / mixed_ref=1 / me_range=24 / chroma_me=1 / trellis=2 / 8x8dct=1 / cqm=0 / deadzone=21,11 / fast_pskip=1 / chroma_qp_offset=-3 / threads=18 / lookahead_threads=3 / sliced_threads=0 / nr=0 / decimate=1 / interlaced=0 / bluray_compat=0 / constrained_intra=0 / bframes=8 / b_pyramid=2 / b_adapt=2 / b_bias=0 / direct=3 / weightb=1 / open_gop=0 / weightp=2 / keyint=250 / keyint_min=23 / scenecut=40 / intra_refresh=0 / rc_lookahead=60 / rc=crf / mbtree=1 / crf=17.0 / qcomp=0.60 / qpmin=0 / qpmax=69 / qpstep=4 / ip_ratio=1.40 / aq=3:0.70
Language                                 : English
Default                                  : Yes
Forced                                   : No
Color range                              : Limited
Matrix coefficients                      : BT.709

Audio
ID                                       : 2
Format                                   : DTS XLL
Format/Info                              : Digital Theater Systems
Commercial name                          : DTS-HD Master Audio
Codec ID                                 : A_DTS
Duration                                 : 2 h 51 min
Bit rate mode                            : Variable
Bit rate                                 : 3 317 kb/s
Channel(s)                               : 6 channels
Channel layout                           : C L R Ls Rs LFE
Sampling rate                            : 48.0 kHz
Frame rate                               : 93.750 FPS (512 SPF)
Bit depth                                : 24 bits
Compression mode                         : Lossless
Stream size                              : 3.97 GiB (24%)
Language                                 : Japanese
Default                                  : Yes
Forced                                   : No

Text #1
ID                                       : 3
Format                                   : UTF-8
Codec ID                                 : S_TEXT/UTF8
Codec ID/Info                            : UTF-8 Plain Text
Duration                                 : 2 h 45 min
Bit rate                                 : 56 b/s
Count of elements                        : 2356
Stream size                              : 68.2 KiB (0%)
Title                                    : English
Language                                 : English
Default                                  : Yes
Forced                                   : Yes

Text #2
ID                                       : 4
Format                                   : PGS
Muxing mode                              : zlib
Codec ID                                 : S_HDMV/PGS
Codec ID/Info                            : Picture based subtitle format used on BDs/HD-DVDs
Duration                                 : 2 h 45 min
Bit rate                                 : 30.7 kb/s
Count of elements                        : 4492
Stream size                              : 36.4 MiB (0%)
Title                                    : English
Language                                 : English
Default                                  : No
Forced                                   : No

Menu
00:00:00.000                             : en:00:00:00.000
00:05:19.945                             : en:00:05:19.945
00:12:33.920                             : en:00:12:33.920
00:25:56.472                             : en:00:25:56.472
00:34:59.055                             : en:00:34:59.055
00:40:12.201                             : en:00:40:12.201
00:45:39.153                             : en:00:45:39.153
00:51:10.484                             : en:00:51:10.484
01:00:23.537                             : en:01:00:23.537
01:07:04.562                             : en:01:07:04.562
01:21:46.360                             : en:01:21:46.360
01:26:27.682                             : en:01:26:27.682
01:38:04.670                             : en:01:38:04.670
01:52:31.370                             : en:01:52:31.370
02:00:48.283                             : en:02:00:48.283
02:10:34.744                             : en:02:10:34.744
02:22:37.632                             : en:02:22:37.632
02:34:44.233                             : en:02:34:44.233
02:40:07.681                             : en:02:40:07.681
02:46:10.169                             : en:02:46:10.169

a33cdce5a9f08e1c2d522f741de59dc9.jpg





                                                                                                                                                                                                        
                                                                                                                                                                                                                                                                                                                                                                                                                                                                                                                                                                                                                                                                                                                                                                                                                                                        
bd9eed40943dee9fee7e6aab4ce87258.torrent (21.25 KB, 下载次数: 0)

回复

使用道具 举报

小黑屋|西西论坛

本网站所有资源来自网络,如无意中侵犯了您的权益,请发邮件至 [email protected],立即清除相关链接

GMT+8, 2022-6-27 04:16 , Processed in 0.120692 second(s), 17 queries .

Powered by Discuz! X3.2

© 2001-2013 Comsenz Inc.

快速回复 返回顶部 返回列表