西西论坛

 找回密码
 立即注册
搜索

欲望小镇/我为电影狂 State.and.Main.2000.720p.BluRay.x264-USURY 4.72GB

[复制链接]
admin 发表于 2021-12-29 10:58:32 | 显示全部楼层 |阅读模式
欲望小镇/我为电影狂 State.and.Main.2000.720p.BluRay.x264-USURY 4.72GB                                                                                                                                                                                                                                                                                                                                                                                                                                                                                                                                        -->
帖子完整标题:欲望小镇/我为电影狂 State.and.Main.2000.720p.BluRay.x264-USURY 4.72GB



24d47da8e33da32271d83e768bf3c3f5.jpg



◎译  名 欲望小镇/我为电影狂/电影狂迷
◎片  名 State and Main
◎年  代 2000
◎产  地 法国,美国
◎类  别 剧情 / 喜剧
◎语  言 英语,意大利语
◎上映日期 2000-09-08
◎豆瓣评分 6.9/10 from 51 users
◎豆瓣链接 
◎片  长 105 分钟
◎导  演 大卫·马梅 David Mamet
◎编  剧 大卫·马梅 David Mamet
◎主  演 菲利普·塞默·霍夫曼 Philip Seymour Hoffman
       David Lauren David Lauren
       劳拉·希尔维曼 Laura Silverman
       Charlotte Potok Charlotte Potok
       Josh Marchette Josh Marchette
       瑞奇·杰 Ricky Jay
       Linda Kimbrough Linda Kimbrough
       Morris Lamore Morris Lamore
       Michael James O'Boyle Michael James O'Boyle
       Allen Soule Allen Soule
       杰克·华莱士 Jack Wallace
       文森特·瓜斯塔费罗 Vincent Guastaferro
       帕蒂·卢波恩 Patti LuPone
       J.J. Johnston J.J. Johnston
       Christopher Kaldor Christopher Kaldor
       朱丽娅·斯蒂尔斯 Julia Stiles
       查尔斯·德恩 Charles Durning
       威廉姆·H·梅西 William H. Macy
       丽贝卡·彼得根 Rebecca Pidgeon
       约翰·卡拉辛斯基 John Krasinski
       莱昂内尔·马克·史密斯 Lionel Mark Smith
       Michael Bradshaw Michael Bradshaw
       克拉克·格雷格 Clark Gregg
       乔纳森·凯兹 Jonathan Katz
       大卫·佩默 David Paymer
       Alexandra Kerry Alexandra Kerry
       乔丹·拉戈 Jordan Lage
       迈克尔·希金斯 Michael Higgins
       Jerry Graff Jerry Graff
       艾伦·弗朗西斯 Alan Francis
       Jim Frangione Jim Frangione
       肯·奇斯曼 Ken Cheeseman
       莎拉·杰茜卡·帕克 Sarah Jessica Parker
       亚历克·鲍德温 Alec Baldwin

◎标  签 DavidMamet | 美国电影 | 美国 | 喜剧 | 大卫·马梅 | 欲望小镇 | 2000 | 黑色幽默

◎简  介

  A movie crew invades a small town whose residents are all too ready to give up their values for showbiz glitz.
Video
ID                                       : 1
Format                                   : AVC
Format/Info                              : Advanced Video Codec
Format profile                           :
Format settings                          : CABAC / 9 Ref Frames
Format settings, CABAC                   : Yes
Format settings, Reference frames        : 9 frames
Codec ID                                 : V_MPEG4/ISO/AVC
Duration                                 : 1 h 45 min
Bit rate                                 : 5 619 kb/s
Width                                    : 1 280 pixels
Height                                   : 690 pixels
Display aspect ratio                     : 1.85:1
Frame rate mode                          : Constant
Frame rate                               : 23.976 (24000/1001/189150) FPS
Color space                              : YUV
Chroma subsampling                       : 4:2:0
Bit depth                                : 8 bits
Scan type                                : Progressive
Bits/(Pixel*Frame)                       : 0.265
Stream size                              : 4.15 GiB (88%)
Writing library                          : x264 core 164 r3079 d9a19f0
Encoding settings                        : cabac=1 / ref=9 / deblock=1:-3:-3 / analyse=0x3:0x133 / me=umh / subme=10 / psy=1 / psy_rd=1.00:0.15 / mixed_ref=1 / me_range=24 / chroma_me=1 / trellis=2 / 8x8dct=1 / cqm=0 / deadzone=21,11 / fast_pskip=1 / chroma_qp_offset=-3 / threads=18 / lookahead_threads=3 / sliced_threads=0 / nr=0 / decimate=1 / interlaced=0 / bluray_compat=0 / constrained_intra=0 / bframes=8 / b_pyramid=2 / b_adapt=2 / b_bias=0 / direct=3 / weightb=1 / open_gop=0 / weightp=2 / keyint=250 / keyint_min=23 / scenecut=40 / intra_refresh=0 / rc_lookahead=60 / rc=crf / mbtree=1 / crf=17.0 / qcomp=0.60 / qpmin=0 / qpmax=69 / qpstep=4 / ip_ratio=1.40 / aq=3:0.60
Language                                 : English
Default                                  : Yes
Forced                                   : No

Audio #1
ID                                       : 2
Format                                   : AC-3
Format/Info                              : Audio Coding 3
Commercial name                          : Dolby Digital
Codec ID                                 : A_AC3
Duration                                 : 1 h 45 min
Bit rate mode                            : Constant
Bit rate                                 : 640 kb/s
Channel(s)                               : 6 channels
Channel layout                           : L R C LFE Ls Rs
Sampling rate                            : 48.0 kHz
Frame rate                               : 31.250 FPS (1536 SPF)
Compression mode                         : Lossy
Stream size                              : 484 MiB (10%)
Language                                 : English
Service kind                             : Complete Main
Default                                  : Yes
Forced                                   : No

Audio #2
ID                                       : 3
Format                                   : AAC LC
Format/Info                              : Advanced Audio Codec Low Complexity
Codec ID                                 : A_AAC-2
Duration                                 : 1 h 45 min
Bit rate                                 : 100 kb/s
Channel(s)                               : 2 channels
Channel layout                           : L R
Sampling rate                            : 48.0 kHz
Frame rate                               : 46.875 FPS (1024 SPF)
Compression mode                         : Lossy
Delay relative to video                  : 9 ms
Stream size                              : 75.6 MiB (2%)
Title                                    : English Commentary by Sarah Jessica Parker, William H. Macy, Clark Gregg, David Paymer, and Patti LuPone
Language                                 : English
Default                                  : No
Forced                                   : No

Text #1
ID                                       : 4
Format                                   : UTF-8
Codec ID                                 : S_TEXT/UTF8
Codec ID/Info                            : UTF-8 Plain Text
Duration                                 : 1 h 42 min
Bit rate                                 : 90 b/s
Count of elements                        : 2151
Stream size                              : 68.0 KiB (0%)
Title                                    : English
Language                                 : English
Default                                  : No
Forced                                   : No

Text #2
ID                                       : 5
Format                                   : UTF-8
Codec ID                                 : S_TEXT/UTF8
Codec ID/Info                            : UTF-8 Plain Text
Duration                                 : 1 h 45 min
Bit rate                                 : 93 b/s
Count of elements                        : 2260
Stream size                              : 71.9 KiB (0%)
Title                                    : English SDH
Language                                 : English
Default                                  : No
Forced                                   : No

Text #3
ID                                       : 6
Format                                   : PGS
Muxing mode                              : zlib
Codec ID                                 : S_HDMV/PGS
Codec ID/Info                            : Picture based subtitle format used on BDs/HD-DVDs
Duration                                 : 1 h 45 min
Bit rate                                 : 28.4 kb/s
Count of elements                        : 2831
Stream size                              : 21.3 MiB (0%)
Title                                    : English SDH
Language                                 : English
Default                                  : No
Forced                                   : No

Menu
00:00:00.000                             : en:00:00:00.000
00:08:33.638                             : en:00:08:33.638
00:16:32.074                             : en:00:16:32.074
00:24:28.092                             : en:00:24:28.092
00:32:48.717                             : en:00:32:48.717
00:42:31.966                             : en:00:42:31.966
00:52:22.222                             : en:00:52:22.222
01:01:08.206                             : en:01:01:08.206
01:09:44.931                             : en:01:09:44.931
01:18:20.362                             : en:01:18:20.362
01:28:04.070                             : en:01:28:04.070
01:36:38.626                             : en:01:36:38.626

8e3dac15aff92c7e98463f34118eb56c.jpg





                                                                                                                                                                                                        
                                                                                                                                                                                                                                                                                                                                                                                                                                                                                                                                                                                                                                                                                                                                                                                                                                                        
270d171229b6766a22ad5f99d6b8e638.torrent (24.31 KB, 下载次数: 0)

回复

使用道具 举报

小黑屋|西西论坛

本网站所有资源来自网络,如无意中侵犯了您的权益,请发邮件至 [email protected],立即清除相关链接

GMT+8, 2022-1-20 03:30 , Processed in 0.133577 second(s), 17 queries .

Powered by Discuz! X3.2

© 2001-2013 Comsenz Inc.

快速回复 返回顶部 返回列表