西西论坛

 找回密码
 立即注册
搜索

空中之花 长冈花火物语 Casting.Blossoms.to.the.Sky.2012.720p.BluRay.x264-BiPOLAR ...

[复制链接]
admin 发表于 2021-12-28 08:57:54 | 显示全部楼层 |阅读模式
空中之花 长冈花火物语 Casting.Blossoms.to.the.Sky.2012.720p.BluRay.x264-BiPOLAR 6.81GB                                                                                                                                                                                                                                                                                                                                                                                                                                                                                                                                        -->
帖子完整标题:空中之花 长冈花火物语 Casting.Blossoms.to.the.Sky.2012.720p.BluRay.x264-BiPOLAR 6.81GB





◎译  名 空中之花 长冈花火物语/Casting Blossoms to the Sky/Kono sora no hana: Nagaoka hanabi monogatari/天空之花 长冈花火物语(台)
◎片  名 この空の花~長岡花火物語
◎年  代 2012
◎产  地 日本
◎类  别 剧情
◎语  言 日语
◎上映日期 2012-04-07(日本)
◎豆瓣评分 7.0/10 from 135 users
◎豆瓣链接 
◎片  长 160分钟
◎导  演 大林宣彦 Nobuhiko Obayashi
◎编  剧 大林宣彦 Nobuhiko Obayashi
◎主  演 松雪泰子 Yasuko Matsuyuki
       高岛政宏 Masahiro Takashima
       原田夏希 Natsuki Harada
       柄本明 Akira Emoto
       富司纯子 Sumiko Fuji
       莲佛美沙子 Misako Renbutsu
       尾美利德 Toshinori Omi
       油井昌由树 Masayuki Yui
       森田直幸 Naoyuki Morita
       山崎纮菜 Hirona Yamazaki
       草刈正雄 Masao Kusakari
       小林優斗 Yuto Kobayashi

◎标  签 日本 | 大林宣彦 | 日本电影 | 2012 | 松雪泰子 | 电影 | 柄本明 | 剧情

◎简  介

  供职于熊本县天草市某地方报纸的记者远藤玲子(松雪泰子 饰)即将前往位于新泻县中越地区的长冈市采访。此次采访的动因主要有三方面,首先玲子曾亲身经历过2004年的中越地震,2011年她还是首批进入东日本大震灾受灾区之一长冈市采访的记者,此外一封来自长冈山古志村的信更是此行的一大动力。发信人名叫片山健一(高岛政宏 饰),是玲子已失去联络多年的旧日恋人。片山称“现在还赶得上‘战争’”,要玲子尽快过来观看演出。所谓演出是指长冈著名的烟火表演,但是这个表演并非为祭典而准备,而是专门为二战期间空袭以及在震灾中遇难的人们祈福而设,其中更注入了生者对复兴的美好期望。那绚丽多彩的烟火以及其背后深广的意义,强烈吸引着玲子踏上旅程。
  
  
  
  2011年夏天,玲子终于来到长冈。不同的人与风物带给她更多新奇的体验。交织着长冈的历史人文,美好的未来之门缓缓打开……
Video
ID                                       : 1
Format                                   : AVC
Format/Info                              : Advanced Video Codec
Format profile                           :
Format settings                          : CABAC / 9 Ref Frames
Format settings, CABAC                   : Yes
Format settings, Reference frames        : 9 frames
Codec ID                                 : V_MPEG4/ISO/AVC
Duration                                 : 2 h 39 min
Bit rate                                 : 5 448 kb/s
Width                                    : 1 280 pixels
Height                                   : 690 pixels
Display aspect ratio                     : 1.85:1
Frame rate mode                          : Constant
Frame rate                               : 23.976 (24000/1001/189150) FPS
Color space                              : YUV
Chroma subsampling                       : 4:2:0
Bit depth                                : 8 bits
Scan type                                : Progressive
Bits/(Pixel*Frame)                       : 0.257
Stream size                              : 6.07 GiB (89%)
Writing library                          : x264 core 164 r3079 d9a19f0
Encoding settings                        : cabac=1 / ref=9 / deblock=1:-3:-3 / analyse=0x3:0x133 / me=umh / subme=10 / psy=1 / psy_rd=1.00:0.15 / mixed_ref=1 / me_range=24 / chroma_me=1 / trellis=2 / 8x8dct=1 / cqm=0 / deadzone=21,11 / fast_pskip=1 / chroma_qp_offset=-3 / threads=18 / lookahead_threads=3 / sliced_threads=0 / nr=0 / decimate=1 / interlaced=0 / bluray_compat=0 / constrained_intra=0 / bframes=8 / b_pyramid=2 / b_adapt=2 / b_bias=0 / direct=3 / weightb=1 / open_gop=0 / weightp=2 / keyint=250 / keyint_min=23 / scenecut=40 / intra_refresh=0 / rc_lookahead=60 / rc=crf / mbtree=1 / crf=17.0 / qcomp=0.60 / qpmin=0 / qpmax=69 / qpstep=4 / ip_ratio=1.40 / aq=3:0.70
Language                                 : English
Default                                  : Yes
Forced                                   : No
Color range                              : Limited
Matrix coefficients                      : BT.709

Audio
ID                                       : 2
Format                                   : AC-3
Format/Info                              : Audio Coding 3
Commercial name                          : Dolby Digital
Codec ID                                 : A_AC3
Duration                                 : 2 h 39 min
Bit rate mode                            : Constant
Bit rate                                 : 640 kb/s
Channel(s)                               : 6 channels
Channel layout                           : L R C LFE Ls Rs
Sampling rate                            : 48.0 kHz
Frame rate                               : 31.250 FPS (1536 SPF)
Compression mode                         : Lossy
Stream size                              : 731 MiB (10%)
Language                                 : Japanese
Service kind                             : Complete Main
Default                                  : Yes
Forced                                   : No

Text #1
ID                                       : 3
Format                                   : UTF-8
Codec ID                                 : S_TEXT/UTF8
Codec ID/Info                            : UTF-8 Plain Text
Duration                                 : 2 h 32 min
Bit rate                                 : 62 b/s
Count of elements                        : 2098
Stream size                              : 70.5 KiB (0%)
Title                                    : English
Language                                 : English
Default                                  : Yes
Forced                                   : Yes

Text #2
ID                                       : 4
Format                                   : PGS
Muxing mode                              : zlib
Codec ID                                 : S_HDMV/PGS
Codec ID/Info                            : Picture based subtitle format used on BDs/HD-DVDs
Duration                                 : 2 h 32 min
Bit rate                                 : 20.5 kb/s
Count of elements                        : 4018
Stream size                              : 22.5 MiB (0%)
Title                                    : English
Language                                 : English
Default                                  : No
Forced                                   : No

Menu
00:00:00.000                             : en:00:00:00.000
00:02:58.720                             : en:00:02:58.720
00:21:12.104                             : en:00:21:12.104
00:37:52.270                             : en:00:37:52.270
00:57:16.683                             : en:00:57:16.683
01:06:50.173                             : en:01:06:50.173
01:13:43.127                             : en:01:13:43.127
01:16:22.536                             : en:01:16:22.536
01:17:48.664                             : en:01:17:48.664
01:27:55.979                             : en:01:27:55.979
01:40:55.591                             : en:01:40:55.591
01:48:21.954                             : en:01:48:21.954
02:06:12.315                             : en:02:06:12.315
02:14:48.163                             : en:02:14:48.163
02:24:33.999                             : en:02:24:33.999
02:33:23.444                             : en:02:33:23.444





                                                                                                                                                                                                        
                                                                                                                                                                                                                                                                                                                                                                                                                                                                                                                                                                                                                                                                                                                                                                                                                                                        
233c75cd851123c9527396d400aa2666.torrent (17.79 KB, 下载次数: 0)

回复

使用道具 举报

小黑屋|西西论坛

本网站所有资源来自网络,如无意中侵犯了您的权益,请发邮件至 [email protected],立即清除相关链接

GMT+8, 2022-1-20 03:12 , Processed in 0.142323 second(s), 17 queries .

Powered by Discuz! X3.2

© 2001-2013 Comsenz Inc.

快速回复 返回顶部 返回列表