西西论坛

 找回密码
 立即注册
搜索

大野游龙 Boot.Hill.1969.1080p.BluRay.x264-OLDTiME 10.57GB

[复制链接]
admin 发表于 2021-12-28 08:57:53 | 显示全部楼层 |阅读模式
大野游龙 Boot.Hill.1969.1080p.BluRay.x264-OLDTiME 10.57GB                                                                                                                                                                                                                                                                                                                                                                                                                                                                                                                                        -->
帖子完整标题:大野游龙 Boot.Hill.1969.1080p.BluRay.x264-OLDTiME 10.57GB



cc49b67f841ac5ed58a21e271162e02b.jpg



◎译  名 大野游龙/Boot Hill/如狼似虎七金刚(港)
◎片  名 La collina degli stivali
◎年  代 1969
◎产  地 意大利
◎类  别 喜剧 / 西部
◎语  言 意大利语
◎上映日期 1969-12-20
◎豆瓣评分 /10 from 0 users
◎豆瓣链接 
◎片  长 Spain: 97 分钟
◎主  演 特伦斯·希尔 Terence Hill
       格劳科·奥诺拉托 Glauco Onorato
       韦德·普林斯顿 Wayde Preston
       卢西亚诺·罗西 Luciano Rossi
       乔治·伊斯特曼 George Eastman
       恩佐·菲耶尔蒙特 Enzo Fiermonte
       爱德华多·钱内利 Eduardo Ciannelli
       布德·斯藩塞 Bud Spencer
       伍迪·斯特罗德 Woody Strode
       莱昂内尔·斯坦德 Lionel Stander
       维克多·布鲁诺 Victor Buono
       Dante Cleri Dante Cleri

◎标  签 西部 | 意大利 | Italy | Giuseppe.Colizzi | 被忽视的片子 | 喜剧 | torrent | WoodyStrode

◎简  介

  Western favorites Bud Spencer and Terence Hill team up again in this unofficial Trinity film, and go up against an army of organized criminals who have set their sights on a gold mining community.
Video
ID                                       : 1
Format                                   : AVC
Format/Info                              : Advanced Video Codec
Format profile                           :
Format settings                          : CABAC / 5 Ref Frames
Format settings, CABAC                   : Yes
Format settings, Reference frames        : 5 frames
Codec ID                                 : V_MPEG4/ISO/AVC
Duration                                 : 1 h 40 min
Bit rate                                 : 14.6 Mb/s
Width                                    : 1 920 pixels
Height                                   : 816 pixels
Display aspect ratio                     : 2.35:1
Frame rate mode                          : Constant
Frame rate                               : 23.976 (24000/1001/189150) FPS
Color space                              : YUV
Chroma subsampling                       : 4:2:0
Bit depth                                : 8 bits
Scan type                                : Progressive
Bits/(Pixel*Frame)                       : 0.389
Stream size                              : 10.3 GiB (97%)
Writing library                          : x264 core 164 r3075 66a5bc1
Encoding settings                        : cabac=1 / ref=5 / deblock=1:-3:-3 / analyse=0x3:0x133 / me=umh / subme=9 / psy=1 / psy_rd=1.00:0.00 / mixed_ref=1 / me_range=16 / chroma_me=1 / trellis=2 / 8x8dct=1 / cqm=0 / deadzone=21,11 / fast_pskip=0 / chroma_qp_offset=-2 / threads=25 / lookahead_threads=2 / sliced_threads=0 / nr=0 / decimate=1 / interlaced=0 / bluray_compat=0 / constrained_intra=0 / bframes=3 / b_pyramid=2 / b_adapt=2 / b_bias=0 / direct=3 / weightb=1 / open_gop=0 / weightp=2 / keyint=250 / keyint_min=23 / scenecut=40 / intra_refresh=0 / rc_lookahead=60 / rc=crf / mbtree=1 / crf=18.6 / qcomp=0.60 / qpmin=0 / qpmax=69 / qpstep=4 / ip_ratio=1.40 / aq=1:1.00
Language                                 : English
Default                                  : Yes
Forced                                   : No

Audio
ID                                       : 2
Format                                   : FLAC
Format/Info                              : Free Lossless Audio Codec
Codec ID                                 : A_FLAC
Duration                                 : 1 h 40 min
Bit rate mode                            : Variable
Bit rate                                 : 411 kb/s
Channel(s)                               : 2 channels
Channel layout                           : L R
Sampling rate                            : 48.0 kHz
Frame rate                               : 11.719 FPS (4096 SPF)
Bit depth                                : 16 bits
Compression mode                         : Lossless
Stream size                              : 296 MiB (3%)
Writing library                          : libFLAC 1.3.2 (UTC 2017-01-01)
Language                                 : English
Default                                  : Yes
Forced                                   : No

Text #1
ID                                       : 3
Format                                   : UTF-8
Codec ID                                 : S_TEXT/UTF8
Codec ID/Info                            : UTF-8 Plain Text
Duration                                 : 1 h 4 min
Bit rate                                 : 1 b/s
Count of elements                        : 21
Stream size                              : 942 Bytes (0%)
Language                                 : English
Default                                  : Yes
Forced                                   : Yes

Text #2
ID                                       : 4
Format                                   : PGS
Muxing mode                              : zlib
Codec ID                                 : S_HDMV/PGS
Codec ID/Info                            : Picture based subtitle format used on BDs/HD-DVDs
Duration                                 : 1 h 4 min
Bit rate                                 : 1 105 b/s
Count of elements                        : 42
Stream size                              : 522 KiB (0%)
Language                                 : English
Default                                  : No
Forced                                   : No

Text #3
ID                                       : 5
Format                                   : PGS
Muxing mode                              : zlib
Codec ID                                 : S_HDMV/PGS
Codec ID/Info                            : Picture based subtitle format used on BDs/HD-DVDs
Duration                                 : 1 h 37 min
Bit rate                                 : 19.4 kb/s
Count of elements                        : 1152
Stream size                              : 13.5 MiB (0%)
Language                                 : German
Default                                  : No
Forced                                   : No

Text #4
ID                                       : 6
Format                                   : PGS
Muxing mode                              : zlib
Codec ID                                 : S_HDMV/PGS
Codec ID/Info                            : Picture based subtitle format used on BDs/HD-DVDs
Duration                                 : 1 h 15 min
Bit rate                                 : 919 b/s
Count of elements                        : 44
Stream size                              : 512 KiB (0%)
Language                                 : German
Default                                  : No
Forced                                   : No

Menu
00:00:00.000                             : en:Chapter 01
00:05:51.726                             : en:Chapter 02
00:10:40.849                             : en:Chapter 03
00:18:21.600                             : en:Chapter 04
00:23:44.006                             : en:Chapter 05
00:32:04.589                             : en:Chapter 06
00:37:54.522                             : en:Chapter 07
00:44:37.550                             : en:Chapter 08
00:52:54.838                             : en:Chapter 09
01:00:20.408                             : en:Chapter 10
01:04:21.524                             : en:Chapter 11
01:07:23.831                             : en:Chapter 12
01:13:14.265                             : en:Chapter 13
01:20:09.304                             : en:Chapter 14
01:31:28.108                             : en:Chapter 15
01:37:57.371                             : en:Chapter 16

68938544074d516b26b22b319dd7c8c8.jpg





                                                                                                                                                                                                        
                                                                                                                                                                                                                                                                                                                                                                                                                                                                                                                                                                                                                                                                                                                                                                                                                                                        
5911de18782b832592613a7effd6bfbe.torrent (13.94 KB, 下载次数: 0)

回复

使用道具 举报

小黑屋|西西论坛

本网站所有资源来自网络,如无意中侵犯了您的权益,请发邮件至 [email protected],立即清除相关链接

GMT+8, 2022-6-27 05:27 , Processed in 0.105376 second(s), 17 queries .

Powered by Discuz! X3.2

© 2001-2013 Comsenz Inc.

快速回复 返回顶部 返回列表