西西论坛

 找回密码
 立即注册
搜索

谍网双雄/807终极站 Company.Business.1991.REPACK.720p.BluRay.x264-OLDTiME 5.67GB ...

[复制链接]
admin 发表于 2021-12-28 08:57:48 | 显示全部楼层 |阅读模式
谍网双雄/807终极站 Company.Business.1991.REPACK.720p.BluRay.x264-OLDTiME 5.67GB                                                                                                                                                                                                                                                                                                                                                                                                                                                                                                                                        -->
帖子完整标题:谍网双雄/807终极站 Company.Business.1991.REPACK.720p.BluRay.x264-OLDTiME 5.67GB



6bbd615103c66fe623a6bbd047347d35.jpg



◎译  名 谍网双雄/807终极站
◎片  名 Company Business
◎年  代 1991
◎产  地 美国
◎类  别 喜剧 / 动作 / 惊悚
◎语  言 英语
◎上映日期 1991-09-06
◎豆瓣评分 /10 from 0 users
◎豆瓣链接 
◎片  长 98 分钟
◎导  演 尼古拉斯·迈耶 Nicholas Meyer
◎编  剧 尼古拉斯·迈耶 Nicholas Meyer
◎主  演 吉恩·哈克曼 Gene Hackman
       米凯亚·巴瑞辛尼科夫 Mikhail Baryshnikov
       柯特伍德·史密斯 Kurtwood Smith
       特瑞·欧奎恩 Terry O'Quinn
       丹尼尔·冯·巴根 Daniel von Bargen
       Géraldine Danon Géraldine Danon
       Joachim Bliese Joachim Bliese
       纳迪姆·萨瓦哈 Nadim Sawalha
        Scott J. Klein
       鲍勃·舍曼 Bob Sherman
       霍华德·麦克格林 Howard McGillin
       弗朗西斯·勒迈尔 Francis Lemaire
       杰拉德·拉缇戈 Gérard Lartigau
       Andreas Grothusen Andreas Grothusen
       Adèle Anderson Adèle Anderson
       汉斯-埃卡特·埃克哈特 Hans-Eckart Eckhardt

◎标  签 美国电影 | 美国 | 间谍 | 经典老片 | 无厘头 | 动作 | 冷战 | 苏联

◎简  介

  暂无相关剧情介绍
Video
ID                                       : 1
Format                                   : AVC
Format/Info                              : Advanced Video Codec
Format profile                           :
Format settings                          : CABAC / 8 Ref Frames
Format settings, CABAC                   : Yes
Format settings, Reference frames        : 8 frames
Codec ID                                 : V_MPEG4/ISO/AVC
Duration                                 : 1 h 37 min
Bit rate                                 : 7 666 kb/s
Width                                    : 1 280 pixels
Height                                   : 694 pixels
Display aspect ratio                     : 1.85:1
Frame rate mode                          : Constant
Frame rate                               : 23.976 (24000/1001/189150) FPS
Color space                              : YUV
Chroma subsampling                       : 4:2:0
Bit depth                                : 8 bits
Scan type                                : Progressive
Bits/(Pixel*Frame)                       : 0.360
Stream size                              : 5.25 GiB (93%)
Writing library                          : x264 core 164 r3075 66a5bc1
Encoding settings                        : cabac=1 / ref=8 / deblock=1:-3:-3 / analyse=0x3:0x133 / me=umh / subme=9 / psy=1 / psy_rd=1.00:0.00 / mixed_ref=1 / me_range=16 / chroma_me=1 / trellis=2 / 8x8dct=1 / cqm=0 / deadzone=21,11 / fast_pskip=0 / chroma_qp_offset=-2 / threads=22 / lookahead_threads=1 / sliced_threads=0 / nr=0 / decimate=1 / interlaced=0 / bluray_compat=0 / constrained_intra=0 / bframes=3 / b_pyramid=2 / b_adapt=2 / b_bias=0 / direct=3 / weightb=1 / open_gop=0 / weightp=2 / keyint=250 / keyint_min=23 / scenecut=40 / intra_refresh=0 / rc_lookahead=60 / rc=crf / mbtree=1 / crf=17.0 / qcomp=0.60 / qpmin=0 / qpmax=69 / qpstep=4 / ip_ratio=1.40 / aq=1:1.00
Language                                 : English
Default                                  : Yes
Forced                                   : No

Audio
ID                                       : 2
Format                                   : FLAC
Format/Info                              : Free Lossless Audio Codec
Codec ID                                 : A_FLAC
Duration                                 : 1 h 37 min
Bit rate mode                            : Variable
Bit rate                                 : 605 kb/s
Channel(s)                               : 2 channels
Channel layout                           : L R
Sampling rate                            : 48.0 kHz
Frame rate                               : 11.719 FPS (4096 SPF)
Bit depth                                : 16 bits
Compression mode                         : Lossless
Stream size                              : 424 MiB (7%)
Writing library                          : libFLAC 1.3.2 (UTC 2017-01-01)
Language                                 : English
Default                                  : Yes
Forced                                   : No

Text #1
ID                                       : 3
Format                                   : PGS
Muxing mode                              : zlib
Codec ID                                 : S_HDMV/PGS
Codec ID/Info                            : Picture based subtitle format used on BDs/HD-DVDs
Duration                                 : 1 h 35 min
Bit rate                                 : 18.6 kb/s
Count of elements                        : 2737
Stream size                              : 12.7 MiB (0%)
Language                                 : English
Default                                  : No
Forced                                   : No

Text #2
ID                                       : 4
Format                                   : PGS
Muxing mode                              : zlib
Codec ID                                 : S_HDMV/PGS
Codec ID/Info                            : Picture based subtitle format used on BDs/HD-DVDs
Duration                                 : 1 h 35 min
Bit rate                                 : 16.5 kb/s
Count of elements                        : 1847
Stream size                              : 11.2 MiB (0%)
Language                                 : German
Default                                  : No
Forced                                   : No

Menu
00:00:00.000                             : en:Chapter 01
00:03:34.715                             : en:Chapter 02
00:12:41.261                             : en:Chapter 03
00:21:41.550                             : en:Chapter 04
00:33:34.763                             : en:Chapter 05
00:45:05.536                             : en:Chapter 06
00:52:27.561                             : en:Chapter 07
01:01:27.434                             : en:Chapter 08
01:09:42.428                             : en:Chapter 09
01:17:50.583                             : en:Chapter 10
01:26:47.577                             : en:Chapter 11

0facf57b176b959c6a72a7258fb25ed2.jpg





                                                                                                                                                                                                        
                                                                                                                                                                                                                                                                                                                                                                                                                                                                                                                                                                                                                                                                                                                                                                                                                                                        
507c08aed28e986e6ed2128c10fead64.torrent (14.93 KB, 下载次数: 0)

回复

使用道具 举报

小黑屋|西西论坛

本网站所有资源来自网络,如无意中侵犯了您的权益,请发邮件至 [email protected],立即清除相关链接

GMT+8, 2022-6-27 05:00 , Processed in 0.121955 second(s), 17 queries .

Powered by Discuz! X3.2

© 2001-2013 Comsenz Inc.

快速回复 返回顶部 返回列表