西西论坛

 找回密码
 立即注册
搜索

不可思议的收缩人/奇特缩形者 The.Incredible.Shrinking.Man.1957.REMASTERED.1080p.B ...

[复制链接]
admin 发表于 2021-12-28 08:57:47 | 显示全部楼层 |阅读模式
不可思议的收缩人/奇特缩形者 The.Incredible.Shrinking.Man.1957.REMASTERED.1080p.BluRay.x264-US                                                                                                                                                                                                                                                                                                                                                                                                                                                                                                                                        -->
帖子完整标题:不可思议的收缩人/奇特缩形者 The.Incredible.Shrinking.Man.1957.REMASTERED.1080p.BluRay.x264-USURY 11.96GB





◎译  名 不可思议的收缩人/奇特缩形者
◎片  名 The Incredible Shrinking Man
◎年  代 1957
◎产  地 美国
◎类  别 科幻 / 惊悚
◎语  言 英语
◎上映日期 1957-02-22
◎豆瓣评分 8.1/10 from 1837 users
◎豆瓣链接 
◎片  长 81 分钟
◎导  演 杰克·阿诺德 Jack Arnold
◎编  剧 理查德·艾伦·西蒙斯 Richard Alan Simmons / 理查德·麦瑟森 Richard Matheson
◎主  演 格兰特·威廉姆斯 Grant Williams
       保罗兰顿 Paul Langton
       雷蒙德·贝利 Raymond Bailey
       奥逊·威尔斯 Orson Welles
       April Kent April Kent
       Helene Marshall Helene Marshall
       Randy Stuart Randy Stuart
       Frank J. Scannell Frank J. Scannell
       威廉·沙勒特 William Schallert
       Regis Parton Regis Parton
       Luce Potter Luce Potter
       Lock Martin Lock Martin
       戴安娜·达林 Diana Darrin
       比利柯蒂斯 Billy Curtis
       John Hiestand John Hiestand

◎标  签 科幻 | 美国 | 惊悚 | 1950s | 美国电影 | 1957 | 黑白 | 恐怖

◎简  介

  在这1957年科幻片中,一个男子突然迅速缩小。格兰特·威廉姆斯饰演这名不幸受害者,因为遭到辐射而一周减一寸,他能找到恢复身高的疗法吗?
Video
ID                                       : 1
Format                                   : AVC
Format/Info                              : Advanced Video Codec
Format profile                           :
Format settings                          : CABAC / 4 Ref Frames
Format settings, CABAC                   : Yes
Format settings, Reference frames        : 4 frames
Codec ID                                 : V_MPEG4/ISO/AVC
Duration                                 : 1 h 21 min
Bit rate                                 : 20.5 Mb/s
Width                                    : 1 920 pixels
Height                                   : 1 038 pixels
Display aspect ratio                     : 1.85:1
Frame rate mode                          : Constant
Frame rate                               : 23.976 (24000/1001/189150) FPS
Color space                              : YUV
Chroma subsampling                       : 4:2:0
Bit depth                                : 8 bits
Scan type                                : Progressive
Bits/(Pixel*Frame)                       : 0.429
Stream size                              : 11.6 GiB (97%)
Writing library                          : x264 core 164 r3079 d9a19f0
Encoding settings                        : cabac=1 / ref=4 / deblock=1:-3:-3 / analyse=0x3:0x133 / me=umh / subme=10 / psy=1 / psy_rd=1.00:0.15 / mixed_ref=1 / me_range=24 / chroma_me=1 / trellis=2 / 8x8dct=1 / cqm=0 / deadzone=21,11 / fast_pskip=1 / chroma_qp_offset=-3 / threads=18 / lookahead_threads=3 / sliced_threads=0 / nr=0 / decimate=1 / interlaced=0 / bluray_compat=0 / constrained_intra=0 / bframes=8 / b_pyramid=2 / b_adapt=2 / b_bias=0 / direct=3 / weightb=1 / open_gop=0 / weightp=2 / keyint=250 / keyint_min=23 / scenecut=40 / intra_refresh=0 / rc_lookahead=60 / rc=crf / mbtree=1 / crf=18.0 / qcomp=0.60 / qpmin=0 / qpmax=69 / qpstep=4 / ip_ratio=1.40 / aq=3:0.50
Language                                 : English
Default                                  : Yes
Forced                                   : No

Audio #1
ID                                       : 2
Format                                   : FLAC
Format/Info                              : Free Lossless Audio Codec
Codec ID                                 : A_FLAC
Duration                                 : 1 h 21 min
Bit rate mode                            : Variable
Bit rate                                 : 537 kb/s
Channel(s)                               : 1 channel
Channel layout                           : C
Sampling rate                            : 48.0 kHz
Frame rate                               : 11.719 FPS (4096 SPF)
Bit depth                                : 24 bits
Compression mode                         : Lossless
Stream size                              : 312 MiB (3%)
Writing library                          : libFLAC 1.2.1 (UTC 2007-09-17)
Language                                 : English
Default                                  : Yes
Forced                                   : No

Audio #2
ID                                       : 3
Format                                   : AAC LC
Format/Info                              : Advanced Audio Codec Low Complexity
Codec ID                                 : A_AAC-2
Duration                                 : 1 h 21 min
Bit rate                                 : 62.9 kb/s
Channel(s)                               : 1 channel
Channel layout                           : C
Sampling rate                            : 48.0 kHz
Frame rate                               : 46.875 FPS (1024 SPF)
Compression mode                         : Lossy
Delay relative to video                  : 9 ms
Stream size                              : 36.5 MiB (0%)
Title                                    : English Commentary by Tom Weaver and David Schecter
Language                                 : English
Default                                  : No
Forced                                   : No

Text #1
ID                                       : 4
Format                                   : UTF-8
Codec ID                                 : S_TEXT/UTF8
Codec ID/Info                            : UTF-8 Plain Text
Duration                                 : 1 h 18 min
Bit rate                                 : 46 b/s
Count of elements                        : 732
Stream size                              : 27.1 KiB (0%)
Title                                    : English
Language                                 : English
Default                                  : No
Forced                                   : No

Text #2
ID                                       : 5
Format                                   : UTF-8
Codec ID                                 : S_TEXT/UTF8
Codec ID/Info                            : UTF-8 Plain Text
Duration                                 : 1 h 18 min
Bit rate                                 : 49 b/s
Count of elements                        : 780
Stream size                              : 28.4 KiB (0%)
Title                                    : English SDH
Language                                 : English
Default                                  : No
Forced                                   : No

Text #3
ID                                       : 6
Format                                   : PGS
Muxing mode                              : zlib
Codec ID                                 : S_HDMV/PGS
Codec ID/Info                            : Picture based subtitle format used on BDs/HD-DVDs
Duration                                 : 1 h 18 min
Bit rate                                 : 6 928 b/s
Count of elements                        : 1560
Stream size                              : 3.90 MiB (0%)
Title                                    : English SDH
Language                                 : English
Default                                  : No
Forced                                   : No

Menu
00:00:00.000                             : en:00:00:00.000
00:04:38.570                             : en:00:04:38.570
00:10:42.058                             : en:00:10:42.058
00:16:48.341                             : en:00:16:48.341
00:24:14.078                             : en:00:24:14.078
00:29:54.001                             : en:00:29:54.001
00:37:11.980                             : en:00:37:11.980
00:43:43.496                             : en:00:43:43.496
00:59:52.047                             : en:00:59:52.047
01:06:48.379                             : en:01:06:48.379
01:16:15.654                             : en:01:16:15.654





                                                                                                                                                                                                        
                                                                                                                                                                                                                                                                                                                                                                                                                                                                                                                                                                                                                                                                                                                                                                                                                                                        
224e2290580b29b7f9c48444046b41a6.torrent (15.75 KB, 下载次数: 0)

回复

使用道具 举报

小黑屋|西西论坛

本网站所有资源来自网络,如无意中侵犯了您的权益,请发邮件至 [email protected],立即清除相关链接

GMT+8, 2022-1-20 04:21 , Processed in 0.096568 second(s), 17 queries .

Powered by Discuz! X3.2

© 2001-2013 Comsenz Inc.

快速回复 返回顶部 返回列表