西西论坛

 找回密码
 立即注册
搜索

二十五世纪宇宙战争/巴克·罗杰斯在25世纪 Buck.Rogers.in.the.25th.Century.1979.OPE ...

[复制链接]
admin 发表于 2021-12-28 08:57:44 | 显示全部楼层 |阅读模式
二十五世纪宇宙战争/巴克·罗杰斯在25世纪 Buck.Rogers.in.the.25th.Century.1979.OPEN.MATTE.1080p.BluR                                                                                                                                                                                                                                                                                                                                                                                                                                                                                                                                        -->
帖子完整标题:二十五世纪宇宙战争/巴克·罗杰斯在25世纪 Buck.Rogers.in.the.25th.Century.1979.OPEN.MATTE.1080p.BluRay.x264-GUACAMOLE 11.52GB



9ff2703b27cfd4733b897365a7cb2a91.jpg



◎译  名 二十五世纪宇宙战争/巴克·罗杰斯在25世纪
◎片  名 Buck Rogers in the 25th Century
◎年  代 1979
◎产  地 美国
◎类  别 动作 / 科幻 / 冒险
◎语  言 英语
◎上映日期 1979-03-30
◎豆瓣评分 /10 from 0 users
◎豆瓣链接 
◎片  长 89分钟
◎导  演 丹尼尔·哈勒 Daniel Haller
◎编  剧 格伦·A·拉尔森 Glen A. Larson / 莱斯利·史蒂文斯 Leslie Stevens / Philip Francis Nowlan Philip Francis Nowlan
◎主  演 吉尔·杰拉德 Gil Gerard
       帕梅拉·亨斯利 Pamela Hensley
       爱琳·格雷 Erin Gray
       亨利·席尔瓦 Henry Silva
       约瑟夫·怀斯曼 Joseph Wiseman
       费利克斯·西拉 Felix Silla
       蒂姆·奥康纳 Tim O'Connor
       H.B.哈格蒂 H.B. Haggerty
       威廉姆·康拉德 William Conrad
       梅尔·布兰科 Mel Blanc
       Guerin Barry Guerin Barry
       Larry Duran Larry Duran
       米丽亚姆·纳尔逊 Miriam Nelson

◎标  签 美国 | 科幻 | 1979 | l-english | CostumeDesign | 80 | 70 | 冒险

◎简  介

  暂无相关剧情介绍
Video
ID                                       : 1
Format                                   : AVC
Format/Info                              : Advanced Video Codec
Format profile                           :
Format settings                          : CABAC / 4 Ref Frames
Format settings, CABAC                   : Yes
Format settings, Reference frames        : 4 frames
Codec ID                                 : V_MPEG4/ISO/AVC
Duration                                 : 1 h 28 min
Bit rate                                 : 18.1 Mb/s
Width                                    : 1 920 pixels
Height                                   : 1 040 pixels
Display aspect ratio                     : 1.85:1
Frame rate mode                          : Constant
Frame rate                               : 23.976 (24000/1001/189150) FPS
Color space                              : YUV
Chroma subsampling                       : 4:2:0
Bit depth                                : 8 bits
Scan type                                : Progressive
Bits/(Pixel*Frame)                       : 0.379
Stream size                              : 11.3 GiB (98%)
Writing library                          : x264 core 164 r3079 d9a19f0
Encoding settings                        : cabac=1 / ref=4 / deblock=1:-3:-3 / analyse=0x3:0x133 / me=umh / subme=9 / psy=1 / psy_rd=1.00:0.00 / mixed_ref=1 / me_range=16 / chroma_me=1 / trellis=2 / 8x8dct=1 / cqm=0 / deadzone=21,11 / fast_pskip=0 / chroma_qp_offset=-2 / threads=24 / lookahead_threads=2 / sliced_threads=0 / nr=0 / decimate=1 / interlaced=0 / bluray_compat=0 / constrained_intra=0 / bframes=3 / b_pyramid=2 / b_adapt=2 / b_bias=0 / direct=3 / weightb=1 / open_gop=0 / weightp=2 / keyint=250 / keyint_min=23 / scenecut=40 / intra_refresh=0 / rc_lookahead=60 / rc=crf / mbtree=1 / crf=19.5 / qcomp=0.60 / qpmin=0 / qpmax=69 / qpstep=4 / ip_ratio=1.40 / aq=3:0.60
Default                                  : Yes
Forced                                   : No
Color range                              : Limited
Matrix coefficients                      : BT.709

Audio
ID                                       : 2
Format                                   : FLAC
Format/Info                              : Free Lossless Audio Codec
Codec ID                                 : A_FLAC
Duration                                 : 1 h 28 min
Bit rate mode                            : Variable
Bit rate                                 : 391 kb/s
Channel(s)                               : 2 channels
Channel layout                           : L R
Sampling rate                            : 48.0 kHz
Frame rate                               : 11.719 FPS (4096 SPF)
Bit depth                                : 16 bits
Compression mode                         : Lossless
Stream size                              : 249 MiB (2%)
Writing library                          : libFLAC 1.2.1 (UTC 2007-09-17)
Language                                 : English
Default                                  : No
Forced                                   : No

Text
ID                                       : 3
Format                                   : PGS
Muxing mode                              : zlib
Codec ID                                 : S_HDMV/PGS
Codec ID/Info                            : Picture based subtitle format used on BDs/HD-DVDs
Duration                                 : 1 h 24 min
Bit rate                                 : 16.6 kb/s
Count of elements                        : 1520
Stream size                              : 10.1 MiB (0%)
Language                                 : English
Default                                  : No
Forced                                   : No

Menu
00:00:00.000                             : en:00:00:00.000
00:04:29.436                             : en:00:04:29.436
00:10:27.669                             : en:00:10:27.669
00:14:23.696                             : en:00:14:23.696
00:20:56.422                             : en:00:20:56.422
00:25:41.957                             : en:00:25:41.957
00:29:49.413                             : en:00:29:49.413
00:39:31.619                             : en:00:39:31.619
00:44:15.069                             : en:00:44:15.069
00:52:41.992                             : en:00:52:41.992
01:02:12.520                             : en:01:02:12.520
01:07:25.041                             : en:01:07:25.041
01:11:21.360                             : en:01:11:21.360
01:16:47.812                             : en:01:16:47.812
01:20:50.554                             : en:01:20:50.554
01:25:03.015                             : en:01:25:03.015

eaf517bf3f61f13926bc53b9e7295329.jpg





                                                                                                                                                                                                        
                                                                                                                                                                                                                                                                                                                                                                                                                                                                                                                                                                                                                                                                                                                                                                                                                                                        
d5fda3bd60a8ef7c9267e12db014e83c.torrent (15.11 KB, 下载次数: 0)

回复

使用道具 举报

小黑屋|西西论坛

本网站所有资源来自网络,如无意中侵犯了您的权益,请发邮件至 [email protected],立即清除相关链接

GMT+8, 2022-6-27 04:31 , Processed in 0.108458 second(s), 17 queries .

Powered by Discuz! X3.2

© 2001-2013 Comsenz Inc.

快速回复 返回顶部 返回列表