西西论坛

 找回密码
 立即注册
搜索

紫色女郎 Ms.Purple.2019.1080p.BluRay.x264.DD5.1-AZVD 8.57GB

[复制链接]
admin 发表于 2021-12-26 08:56:12 | 显示全部楼层 |阅读模式
紫色女郎 Ms.Purple.2019.1080p.BluRay.x264.DD5.1-AZVD 8.57GB                                                                                                                                                                                                                                                                                                                                                                                                                                                                                                                                        -->
帖子完整标题:紫色女郎 Ms.Purple.2019.1080p.BluRay.x264.DD5.1-AZVD 8.57GB



d1d853bc469ecc6f7d4af99c3e879c9a.jpg



◎译  名 紫色女郎/Miss Purple
◎片  名 Ms. Purple
◎年  代 2019
◎产  地 美国
◎类  别 剧情
◎语  言 英语
◎上映日期 2019-01-25(圣丹斯电影节) / 2019-09-06(美国)
◎豆瓣评分 5.5/10 from 520 users
◎豆瓣链接 
◎片  长 88分钟(圣丹斯电影节)
◎导  演 全知泰 Justin Chon
◎编  剧 全知泰 Justin Chon
◎主  演 杰克·崔 Jake Choi Reel
       阿尔玛·马丁内斯 Alma Martinez
       金俊成 Jun-seong Kim
       Jasmine Reid Jasmine Reid

◎标  签 美国 | 剧情 | 2019 | 韩国 | 移民 | 美国电影 | 圣丹斯电影节 | 亲情

◎简  介

  一位在韩国城做卡拉ok女招待的年轻女子在父亲生命的最后几天与她疏远的兄弟重逢。
  
  卡西(Kasie)住在洛杉矶的韩国城(Koreatown),她是一名卡拉ok女招待,靠酒醉的男人陪伴赚钱。当她父亲的临终关怀护士离职后,她与分居的弟弟凯里重新联系,迫使他们进入了一个强烈的自我反省时期,因为抚养他们长大的单身父亲即将离世。

◎获奖情况

  第35届圣丹斯电影节 ?(2019)
  评审团大奖剧情片(提名) 全知泰
Video
ID                                       : 1
Format                                   : AVC
Format/Info                              : Advanced Video Codec
Format profile                           :
Format settings                          : CABAC / 5 Ref Frames
Format settings, CABAC                   : Yes
Format settings, Reference frames        : 5 frames
Codec ID                                 : V_MPEG4/ISO/AVC
Duration                                 : 1 h 27 min
Bit rate                                 : 13.0 Mb/s
Width                                    : 1 920 pixels
Height                                   : 720 pixels
Display aspect ratio                     : 2.667
Frame rate mode                          : Constant
Frame rate                               : 23.976 (24000/1001/189150) FPS
Color space                              : YUV
Chroma subsampling                       : 4:2:0
Bit depth                                : 8 bits
Scan type                                : Progressive
Bits/(Pixel*Frame)                       : 0.393
Stream size                              : 7.94 GiB (93%)
Writing library                          : x264 core 164 r3075+55M 97d28bb t_mod_New [(8 & 10) X86_64]
Encoding settings                        : cabac=1 / ref=5 / deblock=1:-3:-3 / analyse=0x3:0x113 / me=umh / subme=11 / psy=1 / fade_compensate=0.00 / psy_rd=1.00:0.00 / mixed_ref=1 / me_range=32 / chroma_me=1 / trellis=2 / 8x8dct=1 / cqm=0 / deadzone=21,11 / fast_pskip=0 / chroma_qp_offset=-2 / threads=18 / lookahead_threads=3 / sliced_threads=0 / nr=0 / decimate=0 / interlaced=0 / bluray_compat=0 / constrained_intra=0 / fgo=0 / bframes=9 / b_pyramid=2 / b_adapt=2 / b_bias=0 / direct=3 / weightb=1 / open_gop=0 / weightp=2 / keyint=240 / keyint_min=23 / scenecut=40 / intra_refresh=0 / rc_lookahead=60 / rc=crf / mbtree=0 / crf=16.4000 / qcomp=0.60 / qpmin=0:0:0 / qpmax=69:69:69 / qpstep=4 / vbv_maxrate=62500 / vbv_bufsize=78125 / crf_max=0.0 / nal_hrd=none / filler=0 / ip_ratio=1.30 / pb_ratio=1.20 / aq=3:0.80 / aq-sensitivity=10.00 / aq-factor=1.00:1.00:1.00 / aq2=0 / aq3=0
Default                                  : Yes
Forced                                   : No
Color range                              : Limited
Color primaries                          : BT.709
Transfer characteristics                 : BT.709
Matrix coefficients                      : BT.709

Audio
ID                                       : 2
Format                                   : E-AC-3
Format/Info                              : Enhanced AC-3
Commercial name                          : Dolby Digital Plus
Codec ID                                 : A_EAC3
Duration                                 : 1 h 27 min
Bit rate mode                            : Constant
Bit rate                                 : 1 024 kb/s
Channel(s)                               : 6 channels
Channel layout                           : L R C LFE Ls Rs
Sampling rate                            : 48.0 kHz
Frame rate                               : 31.250 FPS (1536 SPF)
Compression mode                         : Lossy
Stream size                              : 640 MiB (7%)
Language                                 : English
Service kind                             : Complete Main
Default                                  : Yes
Forced                                   : No

Text #1
ID                                       : 3
Format                                   : UTF-8
Codec ID                                 : S_TEXT/UTF8
Codec ID/Info                            : UTF-8 Plain Text
Duration                                 : 1 h 17 min
Bit rate                                 : 35 b/s
Count of elements                        : 671
Stream size                              : 20.3 KiB (0%)
Title                                    : Full
Language                                 : English
Default                                  : No
Forced                                   : No

Text #2
ID                                       : 4
Format                                   : UTF-8
Codec ID                                 : S_TEXT/UTF8
Codec ID/Info                            : UTF-8 Plain Text
Duration                                 : 1 h 14 min
Bit rate                                 : 3 b/s
Count of elements                        : 66
Stream size                              : 1.99 KiB (0%)
Title                                    : SDH
Language                                 : English
Default                                  : No
Forced                                   : No

Menu
00:00:00.000                             : en:Chapter 01
00:06:25.167                             : en:Chapter 02
00:14:05.542                             : en:Chapter 03
00:21:53.583                             : en:Chapter 04
00:28:22.458                             : en:Chapter 05
00:32:33.167                             : en:Chapter 06
00:43:05.500                             : en:Chapter 07
00:49:08.417                             : en:Chapter 08
00:55:28.000                             : en:Chapter 09
01:09:00.542                             : en:Chapter 10
01:11:57.542                             : en:Chapter 11
01:20:05.583                             : en:Chapter 12

2ae953101777cd55fab6594b9da68bec.png

[/url]65127c35d27842bb2e88cb9aa844b76e.png

[/url]b6bf9826a6f46410e05c5de3d4b446bf.png

[/url]



                                                                                                                                                                                                        
                                                                                                                                                                                                                                                                                                                                                                                                                                                                                                                                                                                                                                                                                                                                                                                                                                                        
6838a45e989424f909ea818d1b4e0efc.torrent (22.03 KB, 下载次数: 0)

回复

使用道具 举报

小黑屋|西西论坛

本网站所有资源来自网络,如无意中侵犯了您的权益,请发邮件至 [email protected],立即清除相关链接

GMT+8, 2022-1-20 03:18 , Processed in 0.095684 second(s), 17 queries .

Powered by Discuz! X3.2

© 2001-2013 Comsenz Inc.

快速回复 返回顶部 返回列表