西西论坛

 找回密码
 立即注册
搜索

在法国的13天 13.Days.in.France.1968.FRENCH.1080p.BluRay.x264.FLAC.1.0-HANDJOB 9. ...

[复制链接]
admin 发表于 2021-12-26 08:56:07 | 显示全部楼层 |阅读模式
在法国的13天 13.Days.in.France.1968.FRENCH.1080p.BluRay.x264.FLAC.1.0-HANDJOB 9.26GB                                                                                                                                                                                                                                                                                                                                                                                                                                                                                                                                        -->
帖子完整标题:在法国的13天 13.Days.in.France.1968.FRENCH.1080p.BluRay.x264.FLAC.1.0-HANDJOB 9.26GB



3e1daa7792239cb39848ee72ab493d7c.jpg



◎译  名 在法国的13天/13 Days in France/13天法国假日/Grenoble/法兰西假日/法国十三天
◎片  名 13 jours en France
◎年  代 1968
◎产  地 法国
◎类  别 纪录片 / 运动
◎语  言 法语
◎上映日期 1968-06(柏林电影节)
◎豆瓣评分 /10 from 0 users
◎豆瓣链接 
◎片  长 112分钟
◎导  演 克洛德·勒卢什 Claude Lelouch / 弗朗索瓦·莱兴巴赫 Fran?ois Reichenbach / Guy Gilles Guy Gilles
◎编  剧 皮埃尔·厄伊特胡芬 Pierre Uytterhoeven
◎主  演 约翰尼·哈里戴 Johnny Hallyday
       夏尔·安德烈·约瑟夫·马里·戴高乐 Charles de Gaulle
       Jean-Claude Killy Jean-Claude Killy
       达琳达 Dalida
       Peggy Fleming Peggy Fleming

◎标  签 法国电影 | 纪录片 | 法国 | 1968 | 弗朗索瓦·莱兴巴赫 | 欧洲 | LOVE | 当年火热的片子

◎简  介

  暂无相关剧情介绍

◎获奖情况

  第18届柏林国际电影节 ?(1968)
  金熊奖最佳影片(提名) 克洛德·勒卢什?/?弗朗索瓦·莱兴巴赫
Video
ID                                       : 3
Format                                   : AVC
Format/Info                              : Advanced Video Codec
Format profile                           :
Format settings                          : CABAC / 4 Ref Frames
Format settings, CABAC                   : Yes
Format settings, Reference frames        : 4 frames
Codec ID                                 : V_MPEG4/ISO/AVC
Duration                                 : 1 h 52 min
Bit rate                                 : 11.5 Mb/s
Width                                    : 1 792 pixels
Height                                   : 1 080 pixels
Display aspect ratio                     : 5:3
Frame rate mode                          : Constant
Frame rate                               : 23.976 (24000/1001/189150) FPS
Color space                              : YUV
Chroma subsampling                       : 4:2:0
Bit depth                                : 8 bits
Scan type                                : Progressive
Bits/(Pixel*Frame)                       : 0.248
Stream size                              : 9.02 GiB (97%)
Writing library                          : x264 core 157 r2935 545de2f
Encoding settings                        : cabac=1 / ref=4 / deblock=1:-3:-3 / analyse=0x3:0x133 / me=umh / subme=10 / psy=1 / psy_rd=1.00:0.00 / mixed_ref=1 / me_range=32 / chroma_me=1 / trellis=2 / 8x8dct=1 / cqm=0 / deadzone=21,11 / fast_pskip=0 / chroma_qp_offset=-2 / threads=18 / lookahead_threads=4 / sliced_threads=0 / nr=0 / decimate=0 / interlaced=0 / bluray_compat=0 / constrained_intra=0 / bframes=16 / b_pyramid=2 / b_adapt=2 / b_bias=0 / direct=3 / weightb=1 / open_gop=0 / weightp=2 / keyint=240 / keyint_min=24 / scenecut=40 / intra_refresh=0 / rc_lookahead=60 / rc=crf / mbtree=0 / crf=22.5 / qcomp=0.60 / qpmin=0 / qpmax=69 / qpstep=4 / vbv_maxrate=62500 / vbv_bufsize=78125 / crf_max=0.0 / nal_hrd=none / filler=0 / ip_ratio=1.40 / pb_ratio=1.30 / aq=2:1.00
Default                                  : Yes
Forced                                   : No
Color range                              : Limited
Color primaries                          : BT.709
Transfer characteristics                 : BT.709
Matrix coefficients                      : BT.709

Audio
ID                                       : 1
Format                                   : FLAC
Format/Info                              : Free Lossless Audio Codec
Codec ID                                 : A_FLAC
Duration                                 : 1 h 52 min
Bit rate mode                            : Variable
Bit rate                                 : 309 kb/s
Channel(s)                               : 1 channel
Channel layout                           : C
Sampling rate                            : 48.0 kHz
Frame rate                               : 11.719 FPS (4096 SPF)
Bit depth                                : 16 bits
Compression mode                         : Lossless
Stream size                              : 248 MiB (3%)
Writing library                          : libFLAC 1.2.1 (UTC 2007-09-17)
Language                                 : French
Default                                  : Yes
Forced                                   : No

Text
ID                                       : 2
Format                                   : UTF-8
Codec ID                                 : S_TEXT/UTF8
Codec ID/Info                            : UTF-8 Plain Text
Duration                                 : 1 h 50 min
Bit rate                                 : 10 b/s
Count of elements                        : 265
Stream size                              : 8.45 KiB (0%)
Language                                 : English
Default                                  : Yes
Forced                                   : No

Menu
00:00:00.000                             : :Torch Relay
00:08:04.818                             : :Grenoble prepares
00:14:19.984                             : :Athletes in training
00:20:06.539                             : :Everyone at the opening
00:28:09.563                             : :Men\'s downhill
00:31:55.122                             : :Ice hockey
00:37:55.940                             : :On the ice
00:40:18.499                             : :Snapping the moment
00:43:44.956                             : :The triumph of Jean-Claude Killy
00:52:28.687                             : :Women\'s downhill
00:55:50.806                             : :Women\'s figure skating
00:59:30.484                             : :Entertainment
01:00:56.611                             : :Men\'s giant slalom
01:03:53.121                             : uge
01:05:48.945                             : :Bands and booze
01:07:53.570                             : :Bobsleigh
01:11:32.079                             : :Nordic skiing
01:16:43.474                             : :Speed skating
01:19:41.986                             : :Men\'s figure skating
01:22:22.271                             : airs skating
01:24:16.385                             : :Women\'s slalom
01:28:49.157                             : :Men\'s slalom
01:34:29.372                             : :Women\'s giant slalom
01:37:01.357                             : :Ice hockey (continued)
01:43:33.541                             : :Ballet interlude
01:44:53.078                             : :Ski jumping
01:48:32.881                             : :Winding down

deed14c7a75154f0e6d66db794794ad7.png

[/url]3714034cb6362daeb5ffb9fd34be645e.png

[/url]efdd23501e8b92ad8700fbfb5f96645c.png

[/url]



                                                                                                                                                                                                        
                                                                                                                                                                                                                                                                                                                                                                                                                                                                                                                                                                                                                                                                                                                                                                                                                                                        
7b575b5e4bdd3fad6355b0267df2297c.torrent (23.84 KB, 下载次数: 0)

回复

使用道具 举报

小黑屋|西西论坛

本网站所有资源来自网络,如无意中侵犯了您的权益,请发邮件至 [email protected],立即清除相关链接

GMT+8, 2022-6-27 03:32 , Processed in 0.101357 second(s), 17 queries .

Powered by Discuz! X3.2

© 2001-2013 Comsenz Inc.

快速回复 返回顶部 返回列表