西西论坛

 找回密码
 立即注册
搜索

帝企鹅日记2:召唤 March.of.the.Penguins.2.The.Next.Step.2017.FRENCH.1080p.BluRay. ...

[复制链接]
admin 发表于 2021-12-26 08:56:03 | 显示全部楼层 |阅读模式
帝企鹅日记2:召唤 March.of.the.Penguins.2.The.Next.Step.2017.FRENCH.1080p.BluRay.x264.DD                                                                                                                                                                                                                                                                                                                                                                                                                                                                                                                                        -->
帖子完整标题:帝企鹅日记2:召唤 March.of.the.Penguins.2.The.Next.Step.2017.FRENCH.1080p.BluRay.x264.DD5.1-HANDJOB 7.25GB



e384df00ac513156dc44a7ba9084c128.jpg



◎译  名 帝企鹅日记2:召唤/March of the Penguins 2: The Call/企鹅宝贝2:极地的呼唤(台)/小企鹅大长征2(港)/帝企鹅日记2
◎片  名 L'empereur
◎年  代 2017
◎产  地 法国
◎类  别 纪录片
◎语  言 英语,法语
◎上映日期 2017-02-15(法国) / 2018-10-12(中国大陆)
◎豆瓣评分 7.3/10 from 3140 users
◎豆瓣链接 
◎片  长 85分钟
◎导  演 吕克·雅盖 Luc Jacquet
◎主  演 朗贝尔·维尔森 Lambert Wilson
       托马斯·阿克达 Thomas Acda
       摩根·弗里曼 Morgan Freeman
       苏菲·格拉宝 Sofie Gr?b?l
       罗夫·拉斯加德 Rolf Lassg?rd
       皮弗 Pif
       丹尼斯·史托霍伊 Dennis Storh?i

◎标  签 纪录片 | 企鹅 | 法国 | 自然 | 动物 | 海洋 | 温暖 | 2017

◎简  介

  本片讲述的是南极帝企鹅族群孕育新生命的故事:企鹅爸爸和企鹅妈妈从相遇到相爱之后生下企鹅蛋,再到它们把企鹅蛋放在肚皮与脚之间孵出企鹅宝宝,小企鹅的生命历程就这样开始了。在小企鹅没长大之前,严寒、冰川裂缝以及强壮的海燕都可能危及它们脆弱的生命,它们得要努力地长大才行。一旦它们长大了,父母就会离开小企鹅,让它们独自面对未知的海洋世界。凭借自然的直觉,追随着神秘的召唤,小企鹅们踏上未知的旅程,这是属于它们的鹅生传奇。帝企鹅就这样生存繁衍在这片神奇的南极大路上,生生不息…
Video
ID                                       : 1
Format                                   : AVC
Format/Info                              : Advanced Video Codec
Format profile                           :
Format settings                          : CABAC / 5 Ref Frames
Format settings, CABAC                   : Yes
Format settings, Reference frames        : 5 frames
Codec ID                                 : V_MPEG4/ISO/AVC
Duration                                 : 1 h 24 min
Bit rate                                 : 11.6 Mb/s
Width                                    : 1 920 pixels
Height                                   : 804 pixels
Display aspect ratio                     : 2.40:1
Frame rate mode                          : Constant
Frame rate                               : 24.000 FPS
Color space                              : YUV
Chroma subsampling                       : 4:2:0
Bit depth                                : 8 bits
Scan type                                : Progressive
Bits/(Pixel*Frame)                       : 0.313
Stream size                              : 6.86 GiB (95%)
Writing library                          : x264 core 157 r2935 545de2f
Encoding settings                        : cabac=1 / ref=5 / deblock=1:-3:-3 / analyse=0x3:0x133 / me=umh / subme=10 / psy=1 / psy_rd=1.00:0.00 / mixed_ref=1 / me_range=32 / chroma_me=1 / trellis=2 / 8x8dct=1 / cqm=0 / deadzone=21,11 / fast_pskip=0 / chroma_qp_offset=-2 / threads=12 / lookahead_threads=3 / sliced_threads=0 / nr=0 / decimate=0 / interlaced=0 / bluray_compat=0 / constrained_intra=0 / bframes=16 / b_pyramid=2 / b_adapt=2 / b_bias=0 / direct=3 / weightb=1 / open_gop=0 / weightp=1 / keyint=240 / keyint_min=24 / scenecut=40 / intra_refresh=0 / rc_lookahead=60 / rc=crf / mbtree=0 / crf=18.2 / qcomp=0.60 / qpmin=0 / qpmax=69 / qpstep=4 / vbv_maxrate=62500 / vbv_bufsize=78125 / crf_max=0.0 / nal_hrd=none / filler=0 / ip_ratio=1.40 / pb_ratio=1.30 / aq=2:0.80
Language                                 : French
Default                                  : Yes
Forced                                   : No
Color range                              : Limited
Color primaries                          : BT.709
Transfer characteristics                 : BT.709
Matrix coefficients                      : BT.709

Audio
ID                                       : 2
Format                                   : AC-3
Format/Info                              : Audio Coding 3
Commercial name                          : Dolby Digital
Codec ID                                 : A_AC3
Duration                                 : 1 h 24 min
Bit rate mode                            : Constant
Bit rate                                 : 640 kb/s
Channel(s)                               : 6 channels
Channel layout                           : L R C LFE Ls Rs
Sampling rate                            : 48.0 kHz
Frame rate                               : 31.250 FPS (1536 SPF)
Compression mode                         : Lossy
Stream size                              : 388 MiB (5%)
Language                                 : French
Service kind                             : Complete Main
Default                                  : Yes
Forced                                   : No

Text #1
ID                                       : 3
Format                                   : UTF-8
Codec ID                                 : S_TEXT/UTF8
Codec ID/Info                            : UTF-8 Plain Text
Duration                                 : 1 h 18 min
Bit rate                                 : 21 b/s
Count of elements                        : 292
Stream size                              : 12.5 KiB (0%)
Language                                 : English
Default                                  : Yes
Forced                                   : No

Text #2
ID                                       : 4
Format                                   : PGS
Muxing mode                              : zlib
Codec ID                                 : S_HDMV/PGS
Codec ID/Info                            : Picture based subtitle format used on BDs/HD-DVDs
Duration                                 : 1 h 18 min
Bit rate                                 : 13.6 kb/s
Count of elements                        : 564
Stream size                              : 7.62 MiB (0%)
Language                                 : Chinese
Default                                  : No
Forced                                   : No

Menu
00:00:00.000                             : :Chapter 1
00:07:46.292                             : :Chapter 2
00:13:59.875                             : :Chapter 3
00:21:18.750                             : :Chapter 4
00:27:35.792                             : :Chapter 5
00:34:27.458                             : :Chapter 6
00:42:39.750                             : :Chapter 7
00:49:56.292                             : :Chapter 8
00:55:41.458                             : :Chapter 9
01:02:56.167                             : :Chapter 10
01:09:12.625                             : :Chapter 11
01:17:27.917                             : :Chapter 12

5e3d17b9fc02d0bc13c686f4baf2ad6e.png

[/url]f4accbd550e808a723efc960b3ab5ae9.png

[/url]0c8389b4c347eb43273e1948356bc24b.png

[/url]



                                                                                                                                                                                                        
                                                                                                                                                                                                                                                                                                                                                                                                                                                                                                                                                                                                                                                                                                                                                                                                                                                        
afbdf5305ae9df47569efb3c8d68bd10.torrent (18.8 KB, 下载次数: 0)

回复

使用道具 举报

小黑屋|西西论坛

本网站所有资源来自网络,如无意中侵犯了您的权益,请发邮件至 [email protected],立即清除相关链接

GMT+8, 2022-1-20 04:55 , Processed in 0.195422 second(s), 17 queries .

Powered by Discuz! X3.2

© 2001-2013 Comsenz Inc.

快速回复 返回顶部 返回列表