西西论坛

 找回密码
 立即注册
搜索

无心应战 De.Guerre.Lasse.2014.FRENCH.1080p.BluRay.x264.DTS-SbR 13.80GB

[复制链接]
admin 发表于 2021-12-26 08:56:00 | 显示全部楼层 |阅读模式
无心应战 De.Guerre.Lasse.2014.FRENCH.1080p.BluRay.x264.DTS-SbR 13.80GB                                                                                                                                                                                                                                                                                                                                                                                                                                                                                                                                        -->
帖子完整标题:无心应战 De.Guerre.Lasse.2014.FRENCH.1080p.BluRay.x264.DTS-SbR 13.80GB



736ee9c7c392f1655fe86d6fb0c99847.jpg



◎译  名 无心应战
◎片  名 De guerre lasse
◎年  代 2014
◎产  地 法国
◎类  别 剧情 / 惊悚 / 犯罪
◎语  言 法语
◎上映日期 2014-05-07(法国)
◎豆瓣评分 /10 from 0 users
◎豆瓣链接 
◎片  长 94分钟
◎主  演 加里·勒斯培 Jalil Lespert
       切基·卡尤 Tchéky Karyo
       西娅姆·阿巴斯 Hiam Abbass
       穆罕默德·阿列兹基 Mhamed Arezki
       萨巴纳·奥扎尼 Sabrina Ouazani
       让-马利·文灵 Jean-Marie Winling
       奥利维尔·雷堡汀 Olivier Rabourdin
       亚伯拉罕·布拉甲 Abraham Belaga
       德米特里·斯托罗奇 Dimitri Storoge

◎标  签 法国 | 犯罪 | 法国电影 | 剧情 | 2014 | 西娅姆·阿巴斯 | 加里·勒斯培 | DVDrip

◎简  介

  Alex, fils d’un ca?d pied-noir marseillais, s’est engagé dans la Légion pour échapper à un règlement de compte avec la mafia Corse… 4 ans plus tard, Alex déserte et revient sur Marseille pour retrouver Katia, son amour de jeunesse. Mais en ville les rapports de force ont changé : son père s’est retiré des affaires, laissant les Corses et les gangs des Quartiers Nord se partager le contr?le de la ville.
  
  La détermination d’Alex va bouleverser cet équilibre fragile au risque de mettre sa famille en danger...
Video
ID                                       : 1
Format                                   : AVC
Format/Info                              : Advanced Video Codec
Format profile                           :
Format settings                          : CABAC / 4 Ref Frames
Format settings, CABAC                   : Yes
Format settings, Reference frames        : 4 frames
Codec ID                                 : V_MPEG4/ISO/AVC
Duration                                 : 1 h 34 min
Bit rate                                 : 19.4 Mb/s
Width                                    : 1 920 pixels
Height                                   : 818 pixels
Display aspect ratio                     : 2.35:1
Frame rate mode                          : Constant
Frame rate                               : 24.000 FPS
Color space                              : YUV
Chroma subsampling                       : 4:2:0
Bit depth                                : 8 bits
Scan type                                : Progressive
Bits/(Pixel*Frame)                       : 0.513
Stream size                              : 12.8 GiB (93%)
Writing library                          : x264 core 164 r3079+60M cd8c3e1 devel [(8 & 10) X86_64]
Encoding settings                        : cabac=1 / ref=4 / deblock=1:-3:-3 / analyse=0x3:0x133 / me=umh / subme=11 / psy=1 / fade_compensate=0.00 / psy_rd=1.00:0.00 / mixed_ref=1 / me_range=32 / chroma_me=1 / trellis=2 / 8x8dct=1 / cqm=0 / deadzone=21,11 / fast_pskip=1 / chroma_qp_offset=-2 / threads=32 / lookahead_threads=6 / sliced_threads=0 / nr=0 / decimate=1 / interlaced=0 / bluray_compat=0 / constrained_intra=0 / fgo=0 / bframes=10 / b_pyramid=2 / b_adapt=2 / b_bias=0 / direct=3 / weightb=1 / open_gop=0 / weightp=2 / keyint=250 / keyint_min=24 / scenecut=40 / intra_refresh=0 / rc=crf / mbtree=0 / crf=17.0000 / qcomp=0.65 / qpmin=0:0:0 / qpmax=69:69:69 / qpstep=4 / ip_ratio=1.25 / pb_ratio=1.20 / aq=1:0.60 / aq-sensitivity=10.00 / aq-factor=1.00:1.00:1.00 / aq2=0 / aq3=0
Language                                 : French
Default                                  : Yes
Forced                                   : No

Audio
ID                                       : 2
Format                                   : DTS
Format/Info                              : Digital Theater Systems
Codec ID                                 : A_DTS
Duration                                 : 1 h 34 min
Bit rate mode                            : Constant
Bit rate                                 : 1 509 kb/s
Channel(s)                               : 6 channels
Channel layout                           : C L R Ls Rs LFE
Sampling rate                            : 48.0 kHz
Frame rate                               : 93.750 FPS (512 SPF)
Bit depth                                : 24 bits
Compression mode                         : Lossy
Stream size                              : 1 022 MiB (7%)
Language                                 : French
Default                                  : Yes
Forced                                   : No

Text #1
ID                                       : 3
Format                                   : ASS
Codec ID                                 : S_TEXT/ASS
Codec ID/Info                            : Advanced Sub Station Alpha
Duration                                 : 1 h 33 min
Bit rate                                 : 69 b/s
Count of elements                        : 762
Compression mode                         : Lossless
Stream size                              : 47.5 KiB (0%)
Language                                 : Russian
Default                                  : No
Forced                                   : No

Text #2
ID                                       : 4
Format                                   : UTF-8
Codec ID                                 : S_TEXT/UTF8
Codec ID/Info                            : UTF-8 Plain Text
Duration                                 : 1 h 33 min
Bit rate                                 : 45 b/s
Count of elements                        : 763
Stream size                              : 31.3 KiB (0%)
Language                                 : Russian
Default                                  : No
Forced                                   : No

Text #3
ID                                       : 5
Format                                   : ASS
Codec ID                                 : S_TEXT/ASS
Codec ID/Info                            : Advanced Sub Station Alpha
Duration                                 : 1 h 33 min
Bit rate                                 : 53 b/s
Count of elements                        : 765
Compression mode                         : Lossless
Stream size                              : 36.6 KiB (0%)
Language                                 : English
Default                                  : No
Forced                                   : No

Text #4
ID                                       : 6
Format                                   : UTF-8
Codec ID                                 : S_TEXT/UTF8
Codec ID/Info                            : UTF-8 Plain Text
Duration                                 : 1 h 33 min
Bit rate                                 : 29 b/s
Count of elements                        : 765
Stream size                              : 20.3 KiB (0%)
Language                                 : English
Default                                  : No
Forced                                   : No

Text #5
ID                                       : 7
Format                                   : ASS
Codec ID                                 : S_TEXT/ASS
Codec ID/Info                            : Advanced Sub Station Alpha
Duration                                 : 1 h 33 min
Bit rate                                 : 92 b/s
Count of elements                        : 905
Compression mode                         : Lossless
Stream size                              : 63.5 KiB (0%)
Language                                 : French
Default                                  : No
Forced                                   : No

Text #6
ID                                       : 8
Format                                   : UTF-8
Codec ID                                 : S_TEXT/UTF8
Codec ID/Info                            : UTF-8 Plain Text
Duration                                 : 1 h 32 min
Bit rate                                 : 36 b/s
Count of elements                        : 771
Stream size                              : 24.7 KiB (0%)
Title                                    : Eclair
Language                                 : French
Default                                  : No
Forced                                   : No

Text #7
ID                                       : 9
Format                                   : UTF-8
Codec ID                                 : S_TEXT/UTF8
Codec ID/Info                            : UTF-8 Plain Text
Duration                                 : 1 h 33 min
Bit rate                                 : 29 b/s
Count of elements                        : 765
Stream size                              : 20.3 KiB (0%)
Language                                 : Dutch
Default                                  : No
Forced                                   : No

Text #8
ID                                       : 10
Format                                   : UTF-8
Codec ID                                 : S_TEXT/UTF8
Codec ID/Info                            : UTF-8 Plain Text
Duration                                 : 1 h 33 min
Bit rate                                 : 31 b/s
Count of elements                        : 781
Stream size                              : 21.4 KiB (0%)
Language                                 : German
Default                                  : No
Forced                                   : No

Text #9
ID                                       : 11
Format                                   : UTF-8
Codec ID                                 : S_TEXT/UTF8
Codec ID/Info                            : UTF-8 Plain Text
Duration                                 : 1 h 31 min
Bit rate                                 : 29 b/s
Count of elements                        : 594
Stream size                              : 19.9 KiB (0%)
Language                                 : Romanian
Default                                  : No
Forced                                   : No

Text #10
ID                                       : 12
Format                                   : UTF-8
Codec ID                                 : S_TEXT/UTF8
Codec ID/Info                            : UTF-8 Plain Text
Duration                                 : 1 h 33 min
Bit rate                                 : 29 b/s
Count of elements                        : 764
Stream size                              : 20.4 KiB (0%)
Language                                 : Spanish
Default                                  : No
Forced                                   : No

Menu
00:00:00.000                             : en:Chapter 01
00:07:31.375                             : en:Chapter 02
00:14:23.583                             : en:Chapter 03
00:22:54.000                             : en:Chapter 04
00:30:22.792                             : en:Chapter 05
00:40:59.708                             : en:Chapter 06
00:48:50.458                             : en:Chapter 07
00:53:57.583                             : en:Chapter 08
01:02:53.333                             : en:Chapter 09
01:08:55.542                             : en:Chapter 10
01:17:27.667                             : en:Chapter 11
01:27:19.667                             : en:Chapter 12

7c8294047ce69f103659d6f03b03140a.png

[/url]



                                                                                                                                                                                                        
                                                                                                                                                                                                                                                                                                                                                                                                                                                                                                                                                                                                                                                                                                                                                                                                                                                        
07da83cedf6d696209e6846e93f9f9aa.torrent (17.88 KB, 下载次数: 0)

回复

使用道具 举报

小黑屋|西西论坛

本网站所有资源来自网络,如无意中侵犯了您的权益,请发邮件至 [email protected],立即清除相关链接

GMT+8, 2022-6-27 03:55 , Processed in 0.081757 second(s), 17 queries .

Powered by Discuz! X3.2

© 2001-2013 Comsenz Inc.

快速回复 返回顶部 返回列表