西西论坛

 找回密码
 立即注册
搜索

园子温这种生物 The.Sion.Sono.2016.JAPANESE.1080p.BluRay.x264.DD5.1-DON 9.66GB .. ...

[复制链接]
admin 发表于 2021-12-26 08:55:54 | 显示全部楼层 |阅读模式
园子温这种生物 The.Sion.Sono.2016.JAPANESE.1080p.BluRay.x264.DD5.1-DON 9.66GB                                                                                                                                                                                                                                                                                                                                                                                                                                                                                                                                        -->
帖子完整标题:园子温这种生物 The.Sion.Sono.2016.JAPANESE.1080p.BluRay.x264.DD5.1-DON 9.66GB



614f00b8190c12ee695d2b7a2483c4cd.jpg



◎译  名 园子温这种生物/Sion Sono Creature/园子温此生物
◎片  名 園子温という生きもの
◎年  代 2016
◎产  地 日本
◎类  别 纪录片
◎语  言 日语
◎上映日期 2016-05-14(日本)
◎豆瓣评分 7.4/10 from 1835 users
◎豆瓣链接 
◎片  长 97分钟
◎导  演 大岛新 Shin Ohshima
◎主  演 艾丽 Ellie
       神乐坂惠 Megumi Kagurazaka
       二阶堂富美 Fumi Nikaidou
       染谷将太 Sh?ta Sometani
       园子温 Shion Sono

◎标  签 纪录片 | 日本 | 园子温 | 2016 | 日本电影 | 園子温 | 染谷将太 | 二阶堂富美

◎简  介

  从早年的《循环自杀》《纪子的餐桌》《神秘马戏团》,再到近些年的《冰冷热带鱼》《恋之罪》《爱的曝光》,乃至2015年的《新宿天鹅》《爱与和平》《真实魔鬼游戏》和《我们都是超能者!》,绝不按常理出牌的鬼才导演园子温以其特有的方式向时代发出犀利的拷问和挑衅。年过半百,反骨依旧,在cult界大行其道的园导高歌猛进。伴随着《爱的曝光》和《冰冷热带鱼》的走红,他的“恶名”早已传播海外,其本人也成为国际电影节上的常客。在此期间,他和自己作品中的缪斯神乐坂惠走到一起。电影之外,他游走于小说、绘画、音乐等不同艺术领域,颇有建树。
  
  本片导演大岛新曾担任《情热大陆》“园子温篇”的导演,对于这位鬼才电影人,20多分钟的短片远远无法窥尽他的所有魅力一面,于是便有了这部近距离审视园子温的纪录片。
Video
ID                                       : 1
Format                                   : AVC
Format/Info                              : Advanced Video Codec
Format profile                           :
Format settings                          : CABAC / 4 Ref Frames
Format settings, CABAC                   : Yes
Format settings, Reference frames        : 4 frames
Codec ID                                 : V_MPEG4/ISO/AVC
Duration                                 : 1 h 37 min
Bit rate                                 : 13.2 Mb/s
Width                                    : 1 920 pixels
Height                                   : 1 080 pixels
Display aspect ratio                     : 16:9
Frame rate mode                          : Constant
Frame rate                               : 23.976 (24000/1001/189150) FPS
Color space                              : YUV
Chroma subsampling                       : 4:2:0
Bit depth                                : 8 bits
Scan type                                : Progressive
Bits/(Pixel*Frame)                       : 0.266
Stream size                              : 8.97 GiB (93%)
Writing library                          : x264 core 161 r3027 4121277
Encoding settings                        : cabac=1 / ref=4 / deblock=1:-3:-3 / analyse=0x3:0x133 / me=umh / subme=10 / psy=1 / psy_rd=1.00:0.00 / mixed_ref=1 / me_range=32 / chroma_me=1 / trellis=2 / 8x8dct=1 / cqm=0 / deadzone=21,11 / fast_pskip=0 / chroma_qp_offset=-2 / threads=9 / lookahead_threads=2 / sliced_threads=0 / nr=0 / decimate=0 / interlaced=0 / bluray_compat=0 / constrained_intra=0 / bframes=16 / b_pyramid=2 / b_adapt=2 / b_bias=0 / direct=3 / weightb=1 / open_gop=0 / weightp=2 / keyint=250 / keyint_min=23 / scenecut=40 / intra_refresh=0 / rc_lookahead=250 / rc=crf / mbtree=0 / crf=18.1 / qcomp=0.65 / qpmin=0 / qpmax=69 / qpstep=4 / vbv_maxrate=62500 / vbv_bufsize=78125 / crf_max=0.0 / nal_hrd=none / filler=0 / ip_ratio=1.30 / pb_ratio=1.20 / aq=3:0.60 / zones=106938,107579,qcomp=0.55,aq-strength=0.8
Default                                  : Yes
Forced                                   : No
Color range                              : Limited
Color primaries                          : BT.709
Transfer characteristics                 : BT.709
Matrix coefficients                      : BT.709

Audio
ID                                       : 2
Format                                   : E-AC-3
Format/Info                              : Enhanced AC-3
Commercial name                          : Dolby Digital Plus
Codec ID                                 : A_EAC3
Duration                                 : 1 h 37 min
Bit rate mode                            : Constant
Bit rate                                 : 1 023 kb/s
Channel(s)                               : 6 channels
Channel layout                           : L R C LFE Ls Rs
Sampling rate                            : 48.0 kHz
Frame rate                               : 93.750 FPS (512 SPF)
Compression mode                         : Lossy
Stream size                              : 710 MiB (7%)
Language                                 : Japanese
Service kind                             : Complete Main
Default                                  : Yes
Forced                                   : No

Text
ID                                       : 3
Format                                   : UTF-8
Codec ID                                 : S_TEXT/UTF8
Codec ID/Info                            : UTF-8 Plain Text
Duration                                 : 1 h 36 min
Bit rate                                 : 43 b/s
Count of elements                        : 1024
Stream size                              : 31.0 KiB (0%)
Language                                 : English
Default                                  : Yes
Forced                                   : No

Menu
00:00:00.000                             : :Chapter 01
00:03:52.732                             : :Chapter 02
00:13:27.098                             : :Chapter 03
00:21:11.812                             : :Chapter 04
00:31:34.184                             : :Chapter 05
00:43:44.163                             : :Chapter 06
00:47:09.660                             : :Chapter 07
00:58:00.769                             : :Chapter 08
00:59:53.757                             : :Chapter 09
01:11:59.857                             : :Chapter 10
01:22:34.616                             : :Chapter 11
01:30:45.190                             : :Chapter 12

c27237c5f602392e5a3d592db95cfb77.png

[/url]313656759ced6fe34a2e8e48c345f350.png

[/url]5ab184465442c719eca306875e325fdc.png

[/url]



                                                                                                                                                                                                        
                                                                                                                                                                                                                                                                                                                                                                                                                                                                                                                                                                                                                                                                                                                                                                                                                                                        
f171ab0e7757b65d9c17074b75e2e5ab.torrent (24.78 KB, 下载次数: 0)

回复

使用道具 举报

小黑屋|西西论坛

本网站所有资源来自网络,如无意中侵犯了您的权益,请发邮件至 [email protected],立即清除相关链接

GMT+8, 2022-1-20 03:09 , Processed in 0.110168 second(s), 17 queries .

Powered by Discuz! X3.2

© 2001-2013 Comsenz Inc.

快速回复 返回顶部 返回列表