西西论坛

 找回密码
 立即注册
搜索

偶像已死 Idol.Is.Dead.2012.JAPANESE.1080p.BluRay.x264.FLAC2.0-HANDJOB 5.28GB

[复制链接]
admin 发表于 2021-12-26 08:55:51 | 显示全部楼层 |阅读模式
偶像已死 Idol.Is.Dead.2012.JAPANESE.1080p.BluRay.x264.FLAC2.0-HANDJOB 5.28GB                                                                                                                                                                                                                                                                                                                                                                                                                                                                                                                                        -->
帖子完整标题:偶像已死 Idol.Is.Dead.2012.JAPANESE.1080p.BluRay.x264.FLAC2.0-HANDJOB 5.28GB



0e41465ff4f24053cba65155ea0b5361.jpg



◎译  名 偶像已死/Idol is Dead
◎片  名 アイドル?イズ?デッド
◎年  代 2012
◎产  地 日本
◎类  别 喜剧 / 动作 / 恐怖
◎语  言 日语
◎上映日期 2012-05-01(日本)
◎豆瓣评分 /10 from 0 users
◎豆瓣链接 
◎片  长 63分钟

◎标  签 日本 | 喜剧 | 惊悚 | 2010s | 2012 | 日本电影 | 恐怖

◎简  介

  Once, Rui has aimed at a singer. However, now, she was frustrated and was doing the hostess's work in the country. When Rui goes home together with a friend's Tsunko, She met Momoko, the rival at the time of her having aimed as a singer. Momoko became an idol singer and was successful. On the grounds that Momoko has ridiculed Rui, Rui killed two friends, her and her. In order that Rui may escape a crime, She formed the idol group together with Tsunko pretending to be Momoko and others
Video
ID                                       : 1
Format                                   : AVC
Format/Info                              : Advanced Video Codec
Format profile                           :
Format settings                          : CABAC / 4 Ref Frames
Format settings, CABAC                   : Yes
Format settings, Reference frames        : 4 frames
Codec ID                                 : V_MPEG4/ISO/AVC
Duration                                 : 1 h 1 min
Bit rate                                 : 11.7 Mb/s
Width                                    : 1 920 pixels
Height                                   : 1 080 pixels
Display aspect ratio                     : 16:9
Frame rate mode                          : Constant
Frame rate                               : 23.976 (24000/1001/189150) FPS
Color space                              : YUV
Chroma subsampling                       : 4:2:0
Bit depth                                : 8 bits
Scan type                                : Progressive
Bits/(Pixel*Frame)                       : 0.234
Stream size                              : 5.03 GiB (95%)
Writing library                          : x264 core 163 r3059 b684ebe0
Encoding settings                        : cabac=1 / ref=4 / deblock=1:-3:-3 / analyse=0x3:0x133 / me=umh / subme=10 / psy=1 / psy_rd=1.00:0.00 / mixed_ref=1 / me_range=32 / chroma_me=1 / trellis=2 / 8x8dct=1 / cqm=0 / deadzone=21,11 / fast_pskip=0 / chroma_qp_offset=-2 / threads=34 / lookahead_threads=8 / sliced_threads=0 / nr=0 / decimate=0 / interlaced=0 / bluray_compat=0 / constrained_intra=0 / bframes=16 / b_pyramid=2 / b_adapt=2 / b_bias=0 / direct=3 / weightb=1 / open_gop=0 / weightp=2 / keyint=240 / keyint_min=24 / scenecut=40 / intra_refresh=0 / rc_lookahead=60 / rc=crf / mbtree=0 / crf=17.8 / qcomp=0.60 / qpmin=0 / qpmax=69 / qpstep=4 / vbv_maxrate=62500 / vbv_bufsize=78125 / crf_max=0.0 / nal_hrd=none / filler=0 / ip_ratio=1.40 / pb_ratio=1.30 / aq=2:1.00
Default                                  : Yes
Forced                                   : No
Color range                              : Limited
Color primaries                          : BT.709
Transfer characteristics                 : BT.709
Matrix coefficients                      : BT.709

Audio
ID                                       : 2
Format                                   : FLAC
Format/Info                              : Free Lossless Audio Codec
Codec ID                                 : A_FLAC
Duration                                 : 1 h 1 min
Bit rate mode                            : Variable
Bit rate                                 : 600 kb/s
Channel(s)                               : 2 channels
Channel layout                           : L R
Sampling rate                            : 48.0 kHz
Frame rate                               : 11.719 FPS (4096 SPF)
Bit depth                                : 16 bits
Compression mode                         : Lossless
Stream size                              : 265 MiB (5%)
Writing library                          : libFLAC 1.2.1 (UTC 2007-09-17)
Language                                 : Japanese
Default                                  : Yes
Forced                                   : No

Text
ID                                       : 3
Format                                   : UTF-8
Codec ID                                 : S_TEXT/UTF8
Codec ID/Info                            : UTF-8 Plain Text
Duration                                 : 1 h 0 min
Bit rate                                 : 31 b/s
Count of elements                        : 499
Stream size                              : 13.8 KiB (0%)
Language                                 : English
Default                                  : Yes
Forced                                   : No

Menu
00:00:00.000                             : :Chapter 1
00:11:09.586                             : :Chapter 2
00:23:04.300                             : :Chapter 3
00:33:17.996                             : :Chapter 4
00:46:35.960                             : :Chapter 5
00:56:00.023                             : :Chapter 6

771b20ad47aac0ca0695d58a8f7d94ce.png

[/url]c16313d56dc9afe40bdf490c17591da7.png

[/url]aa9e298344df0b4863f0620ad5f4d5ca.png

[/url]



                                                                                                                                                                                                        
                                                                                                                                                                                                                                                                                                                                                                                                                                                                                                                                                                                                                                                                                                                                                                                                                                                        
9735f3613b9225cfa32c118fdad2c711.torrent (13.87 KB, 下载次数: 0)

回复

使用道具 举报

小黑屋|西西论坛

本网站所有资源来自网络,如无意中侵犯了您的权益,请发邮件至 [email protected]look.com,立即清除相关链接

GMT+8, 2022-1-20 04:56 , Processed in 0.465012 second(s), 17 queries .

Powered by Discuz! X3.2

© 2001-2013 Comsenz Inc.

快速回复 返回顶部 返回列表