西西论坛

 找回密码
 立即注册
搜索

神风/电视杀手 Kamikaze.1986.FRENCH.1080p.BluRay.x264.DD5.1-AZVD 14.83GB

[复制链接]
admin 发表于 2021-12-26 08:55:47 | 显示全部楼层 |阅读模式
神风/电视杀手 Kamikaze.1986.FRENCH.1080p.BluRay.x264.DD5.1-AZVD 14.83GB                                                                                                                                                                                                                                                                                                                                                                                                                                                                                                                                        -->
帖子完整标题:神风/电视杀手 Kamikaze.1986.FRENCH.1080p.BluRay.x264.DD5.1-AZVD 14.83GB



8055209ca95ace3a594ab0ebc4335f4d.jpg



◎译  名 神风/电视杀手
◎片  名 Kamikaze
◎年  代 1986
◎产  地 法国
◎类  别 科幻 / 惊悚
◎语  言 法语
◎上映日期 1986-12-10
◎豆瓣评分 7.0/10 from 167 users
◎豆瓣链接 
◎片  长 90 分钟
◎导  演 迪迪埃·格鲁塞特 Didier Grousset
◎编  剧 吕克·贝松 Luc Besson / 迪迪埃·格鲁塞特 Didier Grousset
◎主  演 让·弗朗索瓦·罗宾 Jean-Fran?ois Robin
       理查德·波林热 Richard Bohringer
       罗曼娜·波琳热 Romane Bohringer
       伯纳德·勒鲁 Bernard Leroux
       哈里·克莱文 Harry Cleven
       夏尔·热拉尔 Charles Gérard
       伊什尼·齐科特 Etienne Chicot
       Laurent Spielvogel Laurent Spielvogel
       Arielle Sémenoff Arielle Sémenoff
       多米尼克·拉冯纳特 Dominique Lavanant
       Basile de Bodt Basile de Bodt
       皮埃尔·贝洛 Pierre Belot
       米歇尔·加拉布吕 Michel Galabru
       里顿·利普曼 Riton Liebman

◎标  签 科幻 | 法国 | 吕克·贝松 | 惊悚 | 记忆中的电影 | 法国电影 | 欧洲 | 电视杀手

◎简  介

  一个生活无聊而又极端讨厌电视的发明家在自己的家中制造了一台电磁波发射装置,可以通过电波将拥有杀伤力的信号反射回电视台。杀死直播节目中出现的人。凶手以此取乐。而当他的阴谋被发现时,军方却夺走了该装置,准备用作战争武器。
Video
ID                                       : 1
Format                                   : AVC
Format/Info                              : Advanced Video Codec
Format profile                           :
Format settings                          : CABAC / 5 Ref Frames
Format settings, CABAC                   : Yes
Format settings, Reference frames        : 5 frames
Codec ID                                 : V_MPEG4/ISO/AVC
Duration                                 : 1 h 28 min
Bit rate                                 : 22.9 Mb/s
Width                                    : 1 920 pixels
Height                                   : 816 pixels
Display aspect ratio                     : 2.35:1
Frame rate mode                          : Constant
Frame rate                               : 24.000 FPS
Color space                              : YUV
Chroma subsampling                       : 4:2:0
Bit depth                                : 8 bits
Scan type                                : Progressive
Bits/(Pixel*Frame)                       : 0.608
Stream size                              : 14.2 GiB (96%)
Writing library                          : x264 core 164 r3075+55M 97d28bb t_mod_New [(8 & 10) X86_64]
Encoding settings                        : cabac=1 / ref=5 / deblock=1:-3:-3 / analyse=0x3:0x113 / me=umh / subme=11 / psy=1 / fade_compensate=0.00 / psy_rd=1.00:0.00 / mixed_ref=1 / me_range=32 / chroma_me=1 / trellis=2 / 8x8dct=1 / cqm=0 / deadzone=21,11 / fast_pskip=0 / chroma_qp_offset=-2 / threads=18 / lookahead_threads=3 / sliced_threads=0 / nr=0 / decimate=0 / interlaced=0 / bluray_compat=0 / constrained_intra=0 / fgo=0 / bframes=9 / b_pyramid=2 / b_adapt=2 / b_bias=0 / direct=3 / weightb=1 / open_gop=0 / weightp=2 / keyint=240 / keyint_min=24 / scenecut=40 / intra_refresh=0 / rc_lookahead=60 / rc=crf / mbtree=0 / crf=16.2000 / qcomp=0.60 / qpmin=0:0:0 / qpmax=69:69:69 / qpstep=4 / vbv_maxrate=62500 / vbv_bufsize=78125 / crf_max=0.0 / nal_hrd=none / filler=0 / ip_ratio=1.30 / pb_ratio=1.20 / aq=3:0.80 / aq-sensitivity=10.00 / aq-factor=1.00:1.00:1.00 / aq2=0 / aq3=0
Default                                  : Yes
Forced                                   : No

Audio
ID                                       : 2
Format                                   : E-AC-3
Format/Info                              : Enhanced AC-3
Commercial name                          : Dolby Digital Plus
Codec ID                                 : A_EAC3
Duration                                 : 1 h 28 min
Bit rate mode                            : Constant
Bit rate                                 : 1 024 kb/s
Channel(s)                               : 6 channels
Channel layout                           : L R C LFE Ls Rs
Sampling rate                            : 48.0 kHz
Frame rate                               : 31.250 FPS (1536 SPF)
Compression mode                         : Lossy
Stream size                              : 651 MiB (4%)
Language                                 : French
Service kind                             : Complete Main
Default                                  : Yes
Forced                                   : No

Text #1
ID                                       : 3
Format                                   : UTF-8
Codec ID                                 : S_TEXT/UTF8
Codec ID/Info                            : UTF-8 Plain Text
Duration                                 : 1 h 22 min
Bit rate                                 : 47 b/s
Count of elements                        : 690
Stream size                              : 28.5 KiB (0%)
Language                                 : English
Default                                  : Yes
Forced                                   : No

Text #2
ID                                       : 4
Format                                   : PGS
Muxing mode                              : zlib
Codec ID                                 : S_HDMV/PGS
Codec ID/Info                            : Picture based subtitle format used on BDs/HD-DVDs
Duration                                 : 1 h 25 min
Bit rate                                 : 30.8 kb/s
Count of elements                        : 2122
Stream size                              : 18.9 MiB (0%)
Language                                 : French
Default                                  : No
Forced                                   : No

Menu
00:00:00.000                             : en:Chapter 01
00:06:25.167                             : en:Chapter 02
00:14:05.542                             : en:Chapter 03
00:21:53.583                             : en:Chapter 04
00:28:22.458                             : en:Chapter 05
00:32:33.167                             : en:Chapter 06
00:43:05.500                             : en:Chapter 07
00:49:08.417                             : en:Chapter 08
00:55:28.000                             : en:Chapter 09
01:09:00.542                             : en:Chapter 10
01:11:57.542                             : en:Chapter 11
01:20:05.583                             : en:Chapter 12

f9f61e7333b8db76ddda583bf56945c1.png

[/url]6fe86143743dbde9e9ae6af32fc93257.png

[/url]2fe23afcaac41ef31426c36d68a01c47.png

[/url]



                                                                                                                                                                                                        
                                                                                                                                                                                                                                                                                                                                                                                                                                                                                                                                                                                                                                                                                                                                                                                                                                                        
5edbc647c963f98add2c7785686de595.torrent (19.17 KB, 下载次数: 0)

回复

使用道具 举报

小黑屋|西西论坛

本网站所有资源来自网络,如无意中侵犯了您的权益,请发邮件至 [email protected],立即清除相关链接

GMT+8, 2022-6-27 05:16 , Processed in 0.099104 second(s), 17 queries .

Powered by Discuz! X3.2

© 2001-2013 Comsenz Inc.

快速回复 返回顶部 返回列表