西西论坛

 找回密码
 立即注册
搜索

铁金刚勇破死光枪 Operation.Double.Cross.1965.FRENCH.1080p.BluRay.x264.FLAC2.0-AZ ...

[复制链接]
admin 发表于 2021-12-26 08:55:44 | 显示全部楼层 |阅读模式
铁金刚勇破死光枪 Operation.Double.Cross.1965.FRENCH.1080p.BluRay.x264.FLAC2.0-AZVD 14.16                                                                                                                                                                                                                                                                                                                                                                                                                                                                                                                                        -->
帖子完整标题:铁金刚勇破死光枪 Operation.Double.Cross.1965.FRENCH.1080p.BluRay.x264.FLAC2.0-AZVD 14.16GB



f9bf082c6af27f838b783138dc8a9c62.jpg



◎译  名 铁金刚勇破死光枪/Danger dimensione morte
◎片  名 Train d'enfer
◎年  代 1965
◎产  地 西班牙,法国,意大利
◎类  别 犯罪 / 冒险
◎语  言 法语
◎上映日期 1965
◎豆瓣评分 /10 from 0 users
◎豆瓣链接 
◎片  长 92分钟
◎主  演 玛丽莎·梅尔 Marisa Mell

◎标  签 被忽视的片子 | 美国电影 | 法国电影

◎简  介

  暂无相关剧情介绍
Video
ID                                       : 1
Format                                   : AVC
Format/Info                              : Advanced Video Codec
Format profile                           :
Format settings                          : CABAC / 5 Ref Frames
Format settings, CABAC                   : Yes
Format settings, Reference frames        : 5 frames
Codec ID                                 : V_MPEG4/ISO/AVC
Duration                                 : 1 h 31 min
Bit rate                                 : 21.4 Mb/s
Width                                    : 1 920 pixels
Height                                   : 816 pixels
Display aspect ratio                     : 2.35:1
Frame rate mode                          : Constant
Frame rate                               : 24.000 FPS
Color space                              : YUV
Chroma subsampling                       : 4:2:0
Bit depth                                : 8 bits
Scan type                                : Progressive
Bits/(Pixel*Frame)                       : 0.570
Stream size                              : 13.8 GiB (97%)
Writing library                          : x264 core 164 r3075+55M Encoded by Azevedo in Brazil
Encoding settings                        : cabac=1 / ref=5 / deblock=1:-3:-3 / analyse=0x3:0x113 / me=umh / subme=11 / psy=1 / fade_compensate=0.00 / psy_rd=1.00:0.00 / mixed_ref=1 / me_range=48 / chroma_me=1 / trellis=2 / 8x8dct=1 / cqm=0 / deadzone=21,11 / fast_pskip=0 / chroma_qp_offset=-2 / threads=18 / lookahead_threads=4 / sliced_threads=0 / nr=0 / decimate=0 / interlaced=0 / bluray_compat=0 / constrained_intra=0 / fgo=0 / bframes=12 / b_pyramid=2 / b_adapt=2 / b_bias=0 / direct=3 / weightb=1 / open_gop=0 / weightp=2 / keyint=250 / keyint_min=24 / scenecut=40 / intra_refresh=0 / rc_lookahead=60 / rc=crf / mbtree=0 / crf=17.5000 / qcomp=0.60 / qpmin=0:0:0 / qpmax=69:69:69 / qpstep=4 / vbv_maxrate=62500 / vbv_bufsize=78125 / crf_max=0.0 / nal_hrd=none / filler=0 / ip_ratio=1.30 / pb_ratio=1.20 / aq=3:0.80 / aq-sensitivity=10.00 / aq-factor=1.00:1.00:1.00 / aq2=0 / aq3=0
Language                                 : English
Default                                  : Yes
Forced                                   : No
Color range                              : Limited
Color primaries                          : BT.709
Transfer characteristics                 : BT.709
Matrix coefficients                      : BT.709

Audio
ID                                       : 2
Format                                   : FLAC
Format/Info                              : Free Lossless Audio Codec
Codec ID                                 : A_FLAC
Duration                                 : 1 h 31 min
Bit rate mode                            : Variable
Bit rate                                 : 610 kb/s
Channel(s)                               : 2 channels
Channel layout                           : L R
Sampling rate                            : 48.0 kHz
Frame rate                               : 11.719 FPS (4096 SPF)
Bit depth                                : 24 bits
Compression mode                         : Lossless
Stream size                              : 401 MiB (3%)
Writing library                          : libFLAC 1.2.1 (UTC 2007-09-17)
Language                                 : French
Default                                  : Yes
Forced                                   : No

Text #1
ID                                       : 3
Format                                   : UTF-8
Codec ID                                 : S_TEXT/UTF8
Codec ID/Info                            : UTF-8 Plain Text
Duration                                 : 1 h 29 min
Bit rate                                 : 38 b/s
Count of elements                        : 711
Stream size                              : 25.2 KiB (0%)
Title                                    : Full
Language                                 : French
Default                                  : No
Forced                                   : No

Text #2
ID                                       : 4
Format                                   : UTF-8
Codec ID                                 : S_TEXT/UTF8
Codec ID/Info                            : UTF-8 Plain Text
Duration                                 : 1 h 29 min
Bit rate                                 : 43 b/s
Count of elements                        : 886
Stream size                              : 28.8 KiB (0%)
Title                                    : SDH
Language                                 : French
Default                                  : No
Forced                                   : No

Menu
00:00:00.000                             : en:Chapter 01
00:00:09.083                             : en:Chapter 02
00:00:44.542                             : en:Chapter 03
00:09:21.833                             : en:Chapter 04
00:15:48.833                             : en:Chapter 05
00:21:51.542                             : en:Chapter 06
00:32:17.000                             : en:Chapter 07
00:39:23.958                             : en:Chapter 08
00:46:42.750                             : en:Chapter 09
00:59:36.708                             : en:Chapter 10
01:07:31.917                             : en:Chapter 11
01:15:44.333                             : en:Chapter 12
01:23:38.875                             : en:Chapter 13

718d4be7fef2d6cda5f3ddc255901c58.png

[/url]6fa35606cdf4a70207e546bed22f4ce7.png

[/url]f885d015bf39976e5accb9a25c9bdbb4.png

[/url]



                                                                                                                                                                                                        
                                                                                                                                                                                                                                                                                                                                                                                                                                                                                                                                                                                                                                                                                                                                                                                                                                                        
4048e2dafd198389b82f1b85ede39d1a.torrent (18.36 KB, 下载次数: 0)

回复

使用道具 举报

小黑屋|西西论坛

本网站所有资源来自网络,如无意中侵犯了您的权益,请发邮件至 [email protected],立即清除相关链接

GMT+8, 2022-6-27 05:07 , Processed in 0.117807 second(s), 17 queries .

Powered by Discuz! X3.2

© 2001-2013 Comsenz Inc.

快速回复 返回顶部 返回列表