西西论坛

 找回密码
 立即注册
搜索

堡垒/堡垒危机 Fortress.2021.1080p.BluRay.x264-WoAT 12.87GB

[复制链接]
admin 发表于 2021-12-24 08:53:16 | 显示全部楼层 |阅读模式
堡垒/堡垒危机 Fortress.2021.1080p.BluRay.x264-WoAT 12.87GB                                                                                                                                                                                                                                                                                                                                                                                                                                                                                                                                        -->
帖子完整标题:堡垒/堡垒危机 Fortress.2021.1080p.BluRay.x264-WoAT 12.87GB



a5c35289b75764e2d07013d44b7afd19.jpg



◎译  名 堡垒/堡垒危机
◎片  名 Fortress
◎年  代 2021
◎产  地 美国
◎类  别 动作 / 犯罪
◎语  言 英语
◎上映日期 2021-12-17(美国)
◎豆瓣评分 3.7/10 from 117 users
◎豆瓣链接 
◎主  演 布鲁斯·威利斯 Bruce Willis
       查德·迈克尔·墨瑞 Chad Michael Murray
       杰西·麦特卡尔菲 Jesse Metcalfe
       莎侬·多赫提 Shannen Doherty
       娜塔莉·伯恩 Natalie Burn
       西恩·凯南 Sean Kanan
       西蒙·菲利普斯 Simon Phillips
       瑟达吕斯·布兰 Ser'Darius Blain

◎标  签 布鲁斯·威利斯 | 动作 | 美国 | 烂片中的烂片 | 犯罪 | 2021 | 电影 | 查德·迈克尔·墨瑞

◎简  介

  A group of criminals hellbent on revenge, forces a retired officer and his son to save the day.
Video
ID                                       : 1
Format                                   : AVC
Format/Info                              : Advanced Video Codec
Format profile                           :
Format settings                          : CABAC / 5 Ref Frames
Format settings, CABAC                   : Yes
Format settings, Reference frames        : 5 frames
Codec ID                                 : V_MPEG4/ISO/AVC
Duration                                 : 1 h 38 min
Bit rate                                 : 14.6 Mb/s
Width                                    : 1 920 pixels
Height                                   : 804 pixels
Display aspect ratio                     : 2.40:1
Frame rate mode                          : Constant
Frame rate                               : 23.976 (24000/1001/189150) FPS
Color space                              : YUV
Chroma subsampling                       : 4:2:0
Bit depth                                : 8 bits
Scan type                                : Progressive
Bits/(Pixel*Frame)                       : 0.395
Stream size                              : 10.1 GiB (78%)
Writing library                          : x264 core 164 r3079 d9a19f0
Encoding settings                        : cabac=1 / ref=5 / deblock=1:-3:-3 / analyse=0x3:0x133 / me=umh / subme=9 / psy=1 / psy_rd=1.00:0.00 / mixed_ref=1 / me_range=32 / chroma_me=1 / trellis=2 / 8x8dct=1 / cqm=0 / deadzone=21,11 / fast_pskip=0 / chroma_qp_offset=-2 / threads=16 / lookahead_threads=2 / sliced_threads=0 / nr=0 / decimate=0 / interlaced=0 / bluray_compat=0 / constrained_intra=0 / bframes=8 / b_pyramid=2 / b_adapt=2 / b_bias=0 / direct=3 / weightb=1 / open_gop=0 / weightp=2 / keyint=250 / keyint_min=23 / scenecut=40 / intra_refresh=0 / rc_lookahead=60 / rc=crf / mbtree=1 / crf=16.0 / qcomp=0.60 / qpmin=0 / qpmax=69 / qpstep=4 / ip_ratio=1.40 / aq=3:0.88
Default                                  : Yes
Forced                                   : No
Color range                              : Limited
Matrix coefficients                      : BT.709

Audio
ID                                       : 2
Format                                   : DTS XLL
Format/Info                              : Digital Theater Systems
Commercial name                          : DTS-HD Master Audio
Codec ID                                 : A_DTS
Duration                                 : 1 h 38 min
Bit rate mode                            : Variable
Bit rate                                 : 3 973 kb/s
Channel(s)                               : 6 channels
Channel layout                           : C L R Ls Rs LFE
Sampling rate                            : 48.0 kHz
Frame rate                               : 93.750 FPS (512 SPF)
Bit depth                                : 24 bits
Compression mode                         : Lossless
Stream size                              : 2.74 GiB (21%)
Title                                    : English
Language                                 : English
Default                                  : No
Forced                                   : No

Text #1
ID                                       : 3
Format                                   : PGS
Muxing mode                              : zlib
Codec ID                                 : S_HDMV/PGS
Codec ID/Info                            : Picture based subtitle format used on BDs/HD-DVDs
Duration                                 : 1 h 31 min
Bit rate                                 : 35.5 kb/s
Count of elements                        : 2600
Stream size                              : 23.4 MiB (0%)
Title                                    : English
Language                                 : English
Default                                  : No
Forced                                   : No

Text #2
ID                                       : 4
Format                                   : PGS
Muxing mode                              : zlib
Codec ID                                 : S_HDMV/PGS
Codec ID/Info                            : Picture based subtitle format used on BDs/HD-DVDs
Duration                                 : 1 h 36 min
Bit rate                                 : 30.9 kb/s
Count of elements                        : 2174
Stream size                              : 21.4 MiB (0%)
Title                                    : Spanish
Language                                 : Spanish
Default                                  : No
Forced                                   : No

Text #3
ID                                       : 5
Format                                   : PGS
Muxing mode                              : zlib
Codec ID                                 : S_HDMV/PGS
Codec ID/Info                            : Picture based subtitle format used on BDs/HD-DVDs
Duration                                 : 1 h 31 min
Bit rate                                 : 34.2 kb/s
Count of elements                        : 2316
Stream size                              : 22.4 MiB (0%)
Title                                    : Portuguese
Language                                 : Portuguese
Default                                  : No
Forced                                   : No

Menu
00:00:00.000                             : Chapter 01
00:04:17.632                             : Chapter 02
00:11:38.948                             : Chapter 03
00:17:29.340                             : Chapter 04
00:23:31.535                             : Chapter 05
00:30:26.992                             : Chapter 06
00:36:17.342                             : Chapter 07
00:41:17.225                             : Chapter 08
00:47:25.259                             : Chapter 09
00:55:33.664                             : Chapter 10
00:59:36.239                             : Chapter 11
01:05:28.758                             : Chapter 12
01:15:50.504                             : Chapter 13
01:19:27.888                             : Chapter 14
01:25:23.201                             : Chapter 15
01:31:02.791                             : Chapter 16

02cd810a8f21a8cf0fb2e2512656cf70.jpg





                                                                                                                                                                                                        
                                                                                                                                                                                                                                                                                                                                                                                                                                                                                                                                                                                                                                                                                                                                                                                                                                                        
69ddbc6e8c1add9aaaed2b6e656a4049.torrent (16.8 KB, 下载次数: 0)

回复

使用道具 举报

小黑屋|西西论坛

本网站所有资源来自网络,如无意中侵犯了您的权益,请发邮件至 [email protected],立即清除相关链接

GMT+8, 2022-1-20 03:14 , Processed in 0.130801 second(s), 17 queries .

Powered by Discuz! X3.2

© 2001-2013 Comsenz Inc.

快速回复 返回顶部 返回列表