西西论坛

 找回密码
 立即注册
搜索

试管人魔 The.Kindred.1987.1080p.BluRay.x264.DTS-SaL 10.98GB

[复制链接]
admin 发表于 2021-12-23 10:52:34 | 显示全部楼层 |阅读模式
试管人魔 The.Kindred.1987.1080p.BluRay.x264.DTS-SaL 10.98GB                                                                                                                                                                                                                                                                                                                                                                                                                                                                                                                                        -->
帖子完整标题:试管人魔 The.Kindred.1987.1080p.BluRay.x264.DTS-SaL 10.98GB



89d3c1110135493ae3c722cb9adf306f.jpg



◎译  名 试管人魔
◎片  名 The Kindred
◎年  代 1987
◎产  地 美国
◎类  别 科幻 / 恐怖
◎语  言 英语
◎上映日期 1987-01-09
◎豆瓣评分 5.9/10 from 152 users
◎豆瓣链接 
◎片  长 91 分钟
◎编  剧 史蒂芬·卡朋特 Stephen Carpenter / 约翰·彭尼 John Penney / Earl Ghaffari Earl Ghaffari / 约瑟夫·斯蒂凡诺 Joseph Stefano
◎主  演 戴维·奥格登·施蒂尔斯 David Ogden Stiers
       罗德·斯泰格尔 Rod Steiger
       阿曼达·佩斯 Amanda Pays
       塔利亚·巴尔萨姆 Talia Balsam
       金·亨特 Kim Hunter
       提摩西·吉布斯 Timothy Gibbs
       彼得弗莱切特 Peter Frechette
       朱莉娅·蒙哥马利 Julia Montgomery
       Edgar Small Edgar Small
       David Allen Brooks David Allen Brooks
       Jim Boeke Jim Boeke
       贝内·吉约里 Bennet Guillory
       Steve Conte Steve Conte

◎标  签 恐怖 | 科幻 | cult | 美国 | 恐怖片 | 美国电影 | 邪典 | Cult

◎简  介

  The Kindred(试管人魔)
  
  剧情大概:
  
  约翰医生的弟弟因为车祸而丧生,可他却把自己弟弟的遗体当作试验品改造成了怪物,此时他的朋友们来到其居所看望他,一阵腥风血雨即将到来……(此片感觉像变蝇人+怪形的结合体,但故事并不怎么出彩,不过怪物的样子还算比较独特)
  
  血腥度:3
  
  片中怪物数量:少量
  
  怪物类型:人造生物+变异
  
  怪物特点:试管培育出来的怪物,可迅速长大,有传染能力,触手系
  
  怪物必杀技:穿刺、再生、同化
  
  怪物恶心度:3
  
  ————————————————by zombiehunter
Video
ID                                       : 1
Format                                   : AVC
Format/Info                              : Advanced Video Codec
Format profile                           :
Format settings                          : CABAC / 4 Ref Frames
Format settings, CABAC                   : Yes
Format settings, Reference frames        : 4 frames
Codec ID                                 : V_MPEG4/ISO/AVC
Duration                                 : 1 h 32 min
Bit rate                                 : 15.8 Mb/s
Width                                    : 1 920 pixels
Height                                   : 1 080 pixels
Display aspect ratio                     : 16:9
Frame rate mode                          : Constant
Frame rate                               : 23.976 (24000/1001/189150) FPS
Color space                              : YUV
Chroma subsampling                       : 4:2:0
Bit depth                                : 8 bits
Scan type                                : Progressive
Bits/(Pixel*Frame)                       : 0.317
Stream size                              : 10.2 GiB (93%)
Writing library                          : x264 core 157 r2935 545de2f
Encoding settings                        : cabac=1 / ref=4 / deblock=1:-3:-2 / analyse=0x3:0x133 / me=umh / subme=10 / psy=1 / psy_rd=1.10:0.00 / mixed_ref=1 / me_range=32 / chroma_me=1 / trellis=2 / 8x8dct=1 / cqm=0 / deadzone=6,6 / fast_pskip=0 / chroma_qp_offset=-2 / threads=6 / lookahead_threads=1 / sliced_threads=0 / nr=0 / decimate=0 / interlaced=0 / bluray_compat=0 / constrained_intra=0 / bframes=12 / b_pyramid=2 / b_adapt=2 / b_bias=0 / direct=3 / weightb=1 / open_gop=0 / weightp=2 / keyint=250 / keyint_min=23 / scenecut=40 / intra_refresh=0 / rc_lookahead=150 / rc=crf / mbtree=0 / crf=24.3 / qcomp=0.80 / qpmin=0 / qpmax=69 / qpstep=4 / vbv_maxrate=62500 / vbv_bufsize=78125 / crf_max=0.0 / nal_hrd=none / filler=0 / ip_ratio=1.22 / pb_ratio=1.14 / aq=2:0.60
Default                                  : Yes
Forced                                   : No
Color range                              : Limited
Color primaries                          : BT.709
Matrix coefficients                      : BT.709

Audio #1
ID                                       : 2
Format                                   : FLAC
Format/Info                              : Free Lossless Audio Codec
Codec ID                                 : A_FLAC
Duration                                 : 1 h 32 min
Bit rate mode                            : Variable
Bit rate                                 : 321 kb/s
Channel(s)                               : 1 channel
Sampling rate                            : 48.0 kHz
Frame rate                               : 11.719 FPS (4096 SPF)
Bit depth                                : 16 bits
Compression mode                         : Lossless
Delay relative to video                  : 1 s 0 ms
Stream size                              : 213 MiB (2%)
Title                                    : Original Mono
Writing library                          : libFLAC 1.2.1 (UTC 2007-09-17)
Language                                 : English
Default                                  : Yes
Forced                                   : No

Audio #2
ID                                       : 3
Format                                   : DTS
Format/Info                              : Digital Theater Systems
Codec ID                                 : A_DTS
Duration                                 : 1 h 32 min
Bit rate mode                            : Constant
Bit rate                                 : 768 kb/s
Channel(s)                               : 6 channels
Channel layout                           : C L R Ls Rs LFE
Sampling rate                            : 48.0 kHz
Frame rate                               : 93.750 FPS (512 SPF)
Bit depth                                : 24 bits
Compression mode                         : Lossy
Stream size                              : 509 MiB (5%)
Title                                    : Surround-sound upmix
Language                                 : English
Default                                  : No
Forced                                   : No

Audio #3
ID                                       : 4
Format                                   : AAC LC
Format/Info                              : Advanced Audio Codec Low Complexity
Codec ID                                 : A_AAC-2
Duration                                 : 1 h 32 min
Bit rate                                 : 75.9 kb/s
Channel(s)                               : 2 channels
Channel layout                           : L R
Sampling rate                            : 48.0 kHz
Frame rate                               : 46.875 FPS (1024 SPF)
Compression mode                         : Lossy
Stream size                              : 50.3 MiB (0%)
Title                                    : Commentary with directors Jeffrey Obrow and Stephen Carpenter
Language                                 : English
Default                                  : No
Forced                                   : No

Text
ID                                       : 5
Format                                   : UTF-8
Codec ID                                 : S_TEXT/UTF8
Codec ID/Info                            : UTF-8 Plain Text
Duration                                 : 1 h 29 min
Bit rate                                 : 50 b/s
Count of elements                        : 1195
Stream size                              : 33.0 KiB (0%)
Title                                    : English SDH
Language                                 : English
Default                                  : No
Forced                                   : No

Menu
00:00:00.000                             : en:Chapter 01
00:07:33.828                             : en:Chapter 02
00:15:32.306                             : en:Chapter 03
00:23:34.913                             : en:Chapter 04
00:29:03.408                             : en:Chapter 05
00:39:35.206                             : en:Chapter 06
00:50:13.719                             : en:Chapter 07
00:56:53.035                             : en:Chapter 08
01:03:58.043                             : en:Chapter 09
01:12:48.364                             : en:Chapter 10
01:17:03.786                             : en:Chapter 11
01:23:30.797                             : en:Chapter 12





                                                                                                                                                                                                        
                                                                                                                                                                                                                                                                                                                                                                                                                                                                                                                                                                                                                                                                                                                                                                                                                                                        
3e4a3c0a931d3b26362b5418a8820820.torrent (14.34 KB, 下载次数: 0)

回复

使用道具 举报

小黑屋|西西论坛

本网站所有资源来自网络,如无意中侵犯了您的权益,请发邮件至 [email protected],立即清除相关链接

GMT+8, 2022-6-27 03:36 , Processed in 0.119905 second(s), 17 queries .

Powered by Discuz! X3.2

© 2001-2013 Comsenz Inc.

快速回复 返回顶部 返回列表