西西论坛

 找回密码
 立即注册
搜索

地狱宁静/地狱无争 Hell.Hath.No.Fury.2021.1080p.BluRay.x264-PiGNUS 9.58GB

[复制链接]
admin 发表于 2021-12-23 10:52:31 | 显示全部楼层 |阅读模式
地狱宁静/地狱无争 Hell.Hath.No.Fury.2021.1080p.BluRay.x264-PiGNUS 9.58GB                                                                                                                                                                                                                                                                                                                                                                                                                                                                                                                                        -->
帖子完整标题:地狱宁静/地狱无争 Hell.Hath.No.Fury.2021.1080p.BluRay.x264-PiGNUS 9.58GB



292f6a12f09ef5e9b0ba973ef57cd5d5.jpg



◎译  名 地狱宁静/地狱无争
◎片  名 Hell Hath No Fury
◎年  代 2021
◎产  地 美国,法国
◎类  别 动作 / 战争
◎语  言 法语
◎上映日期 2021-04-29(法国)
◎豆瓣评分 4.7/10 from 160 users
◎豆瓣链接 
◎片  长 94分钟
◎导  演 杰西·约翰逊 Jesse V. Johnson
◎编  剧 Katharine Clark Reilly Katharine Clark Reilly
◎主  演 尼娜·伯格曼 Nina Bergman
       丹尼尔·伯哈特 Daniel Bernhardt
       路易·曼迪勒 Louis Mandylor
       蒂莫西·V·墨菲 Timothy V Murphy
       查尔斯·法西 Charles Fathy
       约瑟夫·坎农 Josef Cannon

◎标  签 二战 | 法国 | 战争 | 剧情 | 2021 | 美国 | 动作 | 法国电影

◎简  介

  法国人 Marie DuJardin 被同胞称为叛徒,为了活命,她 不得不带美军士兵们前往纳粹、法国抵抗运动和美国人都在追查的黄金储藏室
Video
ID                                       : 1
Format                                   : AVC
Format/Info                              : Advanced Video Codec
Format profile                           :
Format settings                          : CABAC / 5 Ref Frames
Format settings, CABAC                   : Yes
Format settings, Reference frames        : 5 frames
Codec ID                                 : V_MPEG4/ISO/AVC
Duration                                 : 1 h 34 min
Bit rate                                 : 12.1 Mb/s
Width                                    : 1 920 pixels
Height                                   : 800 pixels
Display aspect ratio                     : 2.40:1
Frame rate mode                          : Constant
Frame rate                               : 24.000 FPS
Color space                              : YUV
Chroma subsampling                       : 4:2:0
Bit depth                                : 8 bits
Scan type                                : Progressive
Bits/(Pixel*Frame)                       : 0.329
Stream size                              : 7.97 GiB (83%)
Writing library                          : x264 core 164 r3079 d9a19f0
Encoding settings                        : cabac=1 / ref=5 / deblock=1:-3:-3 / analyse=0x3:0x133 / me=umh / subme=9 / psy=1 / psy_rd=1.00:0.00 / mixed_ref=1 / me_range=16 / chroma_me=1 / trellis=2 / 8x8dct=1 / cqm=0 / deadzone=21,11 / fast_pskip=1 / chroma_qp_offset=-2 / threads=25 / lookahead_threads=2 / sliced_threads=0 / nr=0 / decimate=1 / interlaced=0 / bluray_compat=0 / constrained_intra=0 / bframes=3 / b_pyramid=2 / b_adapt=2 / b_bias=0 / direct=3 / weightb=1 / open_gop=0 / weightp=2 / keyint=250 / keyint_min=24 / scenecut=40 / intra_refresh=0 / rc_lookahead=60 / rc=crf / mbtree=1 / crf=16.5 / qcomp=0.60 / qpmin=0 / qpmax=69 / qpstep=4 / ip_ratio=1.40 / aq=1:1.00
Default                                  : Yes
Forced                                   : No

Audio
ID                                       : 2
Format                                   : DTS XLL
Format/Info                              : Digital Theater Systems
Commercial name                          : DTS-HD Master Audio
Codec ID                                 : A_DTS
Duration                                 : 1 h 34 min
Bit rate mode                            : Variable
Bit rate                                 : 2 445 kb/s
Channel(s)                               : 6 channels
Channel layout                           : C L R Ls Rs LFE
Sampling rate                            : 48.0 kHz
Frame rate                               : 93.750 FPS (512 SPF)
Bit depth                                : 16 bits
Compression mode                         : Lossless
Stream size                              : 1.61 GiB (17%)
Language                                 : English
Default                                  : Yes
Forced                                   : No

Text
ID                                       : 3
Format                                   : PGS
Muxing mode                              : zlib
Codec ID                                 : S_HDMV/PGS
Codec ID/Info                            : Picture based subtitle format used on BDs/HD-DVDs
Duration                                 : 1 h 27 min
Bit rate                                 : 20.8 kb/s
Count of elements                        : 1001
Stream size                              : 13.1 MiB (0%)
Title                                    : English SDH
Language                                 : English
Default                                  : No
Forced                                   : No

Menu
00:00:00.000                             : en:Chapter 01
00:07:02.250                             : en:Chapter 02
00:15:36.833                             : en:Chapter 03
00:22:39.542                             : en:Chapter 04
00:30:14.250                             : en:Chapter 05
00:38:09.958                             : en:Chapter 06
00:47:05.375                             : en:Chapter 07
00:54:33.958                             : en:Chapter 08
01:04:37.042                             : en:Chapter 09
01:13:24.417                             : en:Chapter 10
01:20:59.792                             : en:Chapter 11
01:30:35.083                             : en:Chapter 12
01:34:02.917                             : en:Chapter 13

1c53fd96a56ce9574cea6a893887f15e.jpg





                                                                                                                                                                                                        
                                                                                                                                                                                                                                                                                                                                                                                                                                                                                                                                                                                                                                                                                                                                                                                                                                                        
20e841c3d30e591f4ef762273b3b6c41.torrent (24.77 KB, 下载次数: 0)

回复

使用道具 举报

小黑屋|西西论坛

本网站所有资源来自网络,如无意中侵犯了您的权益,请发邮件至 [email protected],立即清除相关链接

GMT+8, 2022-1-20 04:48 , Processed in 0.136144 second(s), 17 queries .

Powered by Discuz! X3.2

© 2001-2013 Comsenz Inc.

快速回复 返回顶部 返回列表