西西论坛

 找回密码
 立即注册
搜索

蓝色海湾/蓝色港湾 Blue.Bayou.2021.1080p.BluRay.x264-PiGNUS 17.76GB

[复制链接]
admin 发表于 2021-12-23 10:52:29 | 显示全部楼层 |阅读模式
蓝色海湾/蓝色港湾 Blue.Bayou.2021.1080p.BluRay.x264-PiGNUS 17.76GB                                                                                                                                                                                                                                                                                                                                                                                                                                                                                                                                        -->
帖子完整标题:蓝色海湾/蓝色港湾 Blue.Bayou.2021.1080p.BluRay.x264-PiGNUS 17.76GB



9d56861eb9ae7e4faf4e5db08c066f79.jpg



◎译  名 蓝色海湾/蓝色港湾
◎片  名 Blue Bayou
◎年  代 2021
◎产  地 美国,加拿大
◎类  别 剧情
◎语  言 英语
◎上映日期 2021-07-13(戛纳电影节) / 2021-09-17(美国)
◎豆瓣评分 7.6/10 from 1873 users
◎豆瓣链接 
◎片  长 117分钟
◎导  演 全知泰 Justin Chon
◎编  剧 全知泰 Justin Chon
◎主  演 全知泰 Justin Chon
       艾丽西亚·维坎德 Alicia Vikander
       马克·奥布莱恩 Mark O'Brien
       范林丹 Linh Dan Pham
       辛迪妮·科瓦尔斯基 Sydney Kowalske
       沃迪·科蒂斯·霍尔 Vondie Curtis-Hall
       艾莫里·科恩 Emory Cohen
       杰拉尔丁·辛格 Geraldine Singer
       托比·维特拉诺 Toby Vitrano
       雷内尔·吉布斯 Renell Gibbs
       马丁·巴特斯·布拉德福德 Martin Bats Bradford
       吉姆·格里森 Jim Gleason
       西尔维娅·格雷丝·克里姆 Sylvia Grace Crim
       戈登·德克海默 Gordon Dexheimer
       内德·尤瑟夫 Ned Yousef
       Altonio Jackson Altonio Jackson

◎标  签 美国 | 移民 | 剧情 | 家庭 | 2021 | 种族 | 美国电影 | 韩国

◎简  介

  故事讲述了一个典型美国家庭为未来奋斗的感人而普通的故事。
  
  韩裔美国人Antonio LeBlanc(全知泰 Justin Chon 饰演)幼年时被收养,并在路易斯安那州某个河口小镇长大成人。如今,他与心爱的Katy(艾丽西亚·维坎德 Alicia Vikander 饰演)成家,共同抚养她与前夫生下的 女儿Jessie。当他努力为家人提供最好的生活时,却得知将被这个自己称之为“家”的国家驱逐。挥之不去的过去将他紧紧束缚。

◎获奖情况

  第74届戛纳电影节 ?(2021)
  一种关注单元一种关注大奖(提名) 全知泰
Video
ID                                       : 1
Format                                   : AVC
Format/Info                              : Advanced Video Codec
Format profile                           :
Format settings                          : CABAC / 4 Ref Frames
Format settings, CABAC                   : Yes
Format settings, Reference frames        : 4 frames
Codec ID                                 : V_MPEG4/ISO/AVC
Duration                                 : 1 h 57 min
Bit rate                                 : 17.9 Mb/s
Width                                    : 1 708 pixels
Height                                   : 1 036 pixels
Display aspect ratio                     : 16:10
Frame rate mode                          : Constant
Frame rate                               : 23.976 (24000/1001/189150) FPS
Color space                              : YUV
Chroma subsampling                       : 4:2:0
Bit depth                                : 8 bits
Scan type                                : Progressive
Bits/(Pixel*Frame)                       : 0.422
Stream size                              : 14.6 GiB (82%)
Writing library                          : x264 core 164 r3079 d9a19f0
Encoding settings                        : cabac=1 / ref=4 / deblock=1:-3:-3 / analyse=0x3:0x133 / me=umh / subme=9 / psy=1 / psy_rd=1.00:0.00 / mixed_ref=1 / me_range=16 / chroma_me=1 / trellis=2 / 8x8dct=1 / cqm=0 / deadzone=21,11 / fast_pskip=1 / chroma_qp_offset=-2 / threads=32 / lookahead_threads=2 / sliced_threads=0 / nr=0 / decimate=1 / interlaced=0 / bluray_compat=0 / constrained_intra=0 / bframes=3 / b_pyramid=2 / b_adapt=2 / b_bias=0 / direct=3 / weightb=1 / open_gop=0 / weightp=2 / keyint=250 / keyint_min=23 / scenecut=40 / intra_refresh=0 / rc_lookahead=60 / rc=crf / mbtree=1 / crf=19.0 / qcomp=0.60 / qpmin=0 / qpmax=69 / qpstep=4 / ip_ratio=1.40 / aq=1:1.00
Default                                  : Yes
Forced                                   : No

Audio
ID                                       : 2
Format                                   : DTS XLL
Format/Info                              : Digital Theater Systems
Commercial name                          : DTS-HD Master Audio
Codec ID                                 : A_DTS
Duration                                 : 1 h 57 min
Bit rate mode                            : Variable
Bit rate                                 : 3 760 kb/s
Channel(s)                               : 6 channels
Channel layout                           : C L R Ls Rs LFE
Sampling rate                            : 48.0 kHz
Frame rate                               : 93.750 FPS (512 SPF)
Bit depth                                : 24 bits
Compression mode                         : Lossless
Stream size                              : 3.07 GiB (17%)
Language                                 : English
Default                                  : Yes
Forced                                   : No

Text #1
ID                                       : 3
Format                                   : PGS
Muxing mode                              : zlib
Codec ID                                 : S_HDMV/PGS
Codec ID/Info                            : Picture based subtitle format used on BDs/HD-DVDs
Duration                                 : 1 h 50 min
Bit rate                                 : 38.0 kb/s
Count of elements                        : 2640
Stream size                              : 30.2 MiB (0%)
Title                                    : English SDH
Language                                 : English
Default                                  : No
Forced                                   : No

Text #2
ID                                       : 4
Format                                   : PGS
Muxing mode                              : zlib
Codec ID                                 : S_HDMV/PGS
Codec ID/Info                            : Picture based subtitle format used on BDs/HD-DVDs
Duration                                 : 1 h 54 min
Bit rate                                 : 28.8 kb/s
Count of elements                        : 2294
Stream size                              : 23.7 MiB (0%)
Title                                    : Spanish
Language                                 : Spanish
Default                                  : No
Forced                                   : No

Text #3
ID                                       : 5
Format                                   : PGS
Muxing mode                              : zlib
Codec ID                                 : S_HDMV/PGS
Codec ID/Info                            : Picture based subtitle format used on BDs/HD-DVDs
Duration                                 : 1 h 54 min
Bit rate                                 : 30.8 kb/s
Count of elements                        : 2300
Stream size                              : 25.3 MiB (0%)
Title                                    : French
Language                                 : French
Default                                  : No
Forced                                   : No

Text #4
ID                                       : 6
Format                                   : PGS
Muxing mode                              : zlib
Codec ID                                 : S_HDMV/PGS
Codec ID/Info                            : Picture based subtitle format used on BDs/HD-DVDs
Duration                                 : 1 h 51 min
Bit rate                                 : 1 214 b/s
Count of elements                        : 104
Stream size                              : 995 KiB (0%)
Title                                    : Spanish
Language                                 : Spanish
Default                                  : No
Forced                                   : No

Text #5
ID                                       : 7
Format                                   : PGS
Muxing mode                              : zlib
Codec ID                                 : S_HDMV/PGS
Codec ID/Info                            : Picture based subtitle format used on BDs/HD-DVDs
Duration                                 : 1 h 56 min
Bit rate                                 : 2 430 b/s
Count of elements                        : 164
Stream size                              : 2.02 MiB (0%)
Title                                    : French
Language                                 : French
Default                                  : No
Forced                                   : No

Menu
00:00:00.000                             : en:Chapter 01
00:07:05.467                             : en:Chapter 02
00:12:34.879                             : en:Chapter 03
00:20:24.432                             : en:Chapter 04
00:25:17.141                             : en:Chapter 05
00:32:06.341                             : en:Chapter 06
00:40:49.572                             : en:Chapter 07
00:45:32.647                             : en:Chapter 08
00:51:01.976                             : en:Chapter 09
00:54:57.002                             : en:Chapter 10
01:04:24.652                             : en:Chapter 11
01:10:50.246                             : en:Chapter 12
01:18:06.557                             : en:Chapter 13
01:22:05.295                             : en:Chapter 14
01:27:40.422                             : en:Chapter 15
01:30:03.815                             : en:Chapter 16
01:36:57.854                             : en:Chapter 17
01:40:00.786                             : en:Chapter 18
01:44:47.239                             : en:Chapter 19
01:52:44.758                             : en:Chapter 20
01:56:59.763                             : en:Chapter 21

924925c9a1e0c8c46119b4734fdb9a4a.jpg





                                                                                                                                                                                                        
                                                                                                                                                                                                                                                                                                                                                                                                                                                                                                                                                                                                                                                                                                                                                                                                                                                        
a71c26f9ddd00e70215c48b1be1ee1f9.torrent (22.99 KB, 下载次数: 0)

回复

使用道具 举报

小黑屋|西西论坛

本网站所有资源来自网络,如无意中侵犯了您的权益,请发邮件至 [email protected],立即清除相关链接

GMT+8, 2022-6-27 04:58 , Processed in 0.111011 second(s), 17 queries .

Powered by Discuz! X3.2

© 2001-2013 Comsenz Inc.

快速回复 返回顶部 返回列表