西西论坛

 找回密码
 立即注册
搜索

纽瓦克众圣 The.Many.Saints.of.Newark.2021.720p.BluRay.x264-PiGNUS 5.57GB

[复制链接]
admin 发表于 2021-12-23 10:52:22 | 显示全部楼层 |阅读模式
纽瓦克众圣 The.Many.Saints.of.Newark.2021.720p.BluRay.x264-PiGNUS 5.57GB                                                                                                                                                                                                                                                                                                                                                                                                                                                                                                                                        -->
帖子完整标题:纽瓦克众圣 The.Many.Saints.of.Newark.2021.720p.BluRay.x264-PiGNUS 5.57GB



8ec8b835107d2546041e03bb1499f4a7.jpg



◎译  名 纽瓦克众圣/The Many Saints of Newark: A Sopranos Story/纽瓦克众圣徒:黑道家族外传/纽瓦克的诸多圣人/纽瓦克诸圣/黑道家族前传
◎片  名 The Many Saints of Newark
◎年  代 2021
◎产  地 美国
◎类  别 剧情 / 犯罪
◎语  言 英语
◎上映日期 2021-10-01(美国/美国网络)
◎豆瓣评分 6.1/10 from 800 users
◎豆瓣链接 
◎片  长 120分钟
◎导  演 阿兰·泰勒 Alan Taylor
◎编  剧 劳伦斯·康纳尔 Lawrence Konner / 大卫·切斯 David Chase
◎主  演 迈克尔·甘多菲尼 Michael Gandolfini
       亚历桑德罗·尼沃拉 Alessandro Nivola
       维拉·法米加 Vera Farmiga
       乔·博恩瑟 Jon Bernthal
       小莱斯利·奥多姆 Leslie Odom Jr.
       寇瑞·斯托尔 Corey Stoll
       比利·马格努森 Billy Magnussen
       约翰·马加罗 John Magaro
       雷·利奥塔 Ray Liotta
       达里尔·爱德华兹 Daryl Edwards
       尼克·瓦莱隆加 Nick Vallelonga
       马提亚·孔福尔迪 Mattea Conforti
       德琼·瓦茨 De'Jon Watts
       法龙·索尔兹伯里 Faron Salisbury
       杰玛·特雷尔·加德纳 Germar Terrell Gardner
       安德鲁·波尔克 Andrew Polk
       肯·斯拉迪克 Ken Sladyk
       Sasha Morfaw Sasha Morfaw
       小戴维·M·桑多瓦尔 David M Sandoval Jr.
       Audrey Bennett Audrey Bennett
       伊恩·安特曼 Ian Unterman
       小弗洛伊德·安东尼·约翰 Floyd Anthony Johns Jr.
       克劳黛特·拉利 Claudette Lali
       斯蒂芬妮·林恩·威尔逊 Stephanie Lynn Wilson
       迈克尔·温·古查多 Michael Wren Gucciardo
       阿梅利亚·福勒 Amelia Fowler
       克里斯·勒潘塔 Chris LaPanta
       Edward Sass III Edward Sass III
       克雷格·格拉提 Craig Geraghty
       迈克尔·泽加斯基 Michael Zegarski
        Germir Robinson

◎标  签 黑道家族 | 犯罪 | 美国 | HBO | 2021 | 剧情 | 电影 | 华纳

◎简  介

  根据HBO大热剧集《黑道家族》改编的电影将问世,新线正在打造该剧前传电影[纽瓦克圣人](The Many Saints of Newark,暂译)。原剧编剧兼监制大卫·切斯及编剧劳伦斯·康纳尔操刀新片剧本,大卫·切斯任制片。影片故事背景设定在上世纪60年代纽瓦克暴力活动猖獗地带,黑帮争斗频发。该剧于1999年至2007年播出,共六季,获21项艾美奖、5项金球奖。原剧主演詹姆斯·甘多菲尼、弗兰克·文森特相继于2013年、去年去世。据悉原剧中多个粉丝熟悉的形象将现身大银幕。
Video
ID                                       : 1
Format                                   : AVC
Format/Info                              : Advanced Video Codec
Format profile                           :
Format settings                          : CABAC / 8 Ref Frames
Format settings, CABAC                   : Yes
Format settings, Reference frames        : 8 frames
Codec ID                                 : V_MPEG4/ISO/AVC
Duration                                 : 2 h 0 min
Bit rate                                 : 5 915 kb/s
Width                                    : 1 280 pixels
Height                                   : 536 pixels
Display aspect ratio                     : 2.40:1
Frame rate mode                          : Constant
Frame rate                               : 23.976 (24000/1001/189150) FPS
Color space                              : YUV
Chroma subsampling                       : 4:2:0
Bit depth                                : 8 bits
Scan type                                : Progressive
Bits/(Pixel*Frame)                       : 0.360
Stream size                              : 4.97 GiB (89%)
Writing library                          : x264 core 164 r3079 d9a19f0
Encoding settings                        : cabac=1 / ref=8 / deblock=1:-3:-3 / analyse=0x3:0x133 / me=umh / subme=9 / psy=1 / psy_rd=1.00:0.00 / mixed_ref=1 / me_range=16 / chroma_me=1 / trellis=2 / 8x8dct=1 / cqm=0 / deadzone=21,11 / fast_pskip=1 / chroma_qp_offset=-2 / threads=17 / lookahead_threads=1 / sliced_threads=0 / nr=0 / decimate=1 / interlaced=0 / bluray_compat=0 / constrained_intra=0 / bframes=3 / b_pyramid=2 / b_adapt=2 / b_bias=0 / direct=3 / weightb=1 / open_gop=0 / weightp=2 / keyint=250 / keyint_min=23 / scenecut=40 / intra_refresh=0 / rc_lookahead=60 / rc=crf / mbtree=1 / crf=14.5 / qcomp=0.60 / qpmin=0 / qpmax=69 / qpstep=4 / ip_ratio=1.40 / aq=1:1.00
Default                                  : Yes
Forced                                   : No

Audio
ID                                       : 2
Format                                   : AC-3
Format/Info                              : Audio Coding 3
Commercial name                          : Dolby Digital
Codec ID                                 : A_AC3
Duration                                 : 2 h 0 min
Bit rate mode                            : Constant
Bit rate                                 : 640 kb/s
Channel(s)                               : 6 channels
Channel layout                           : L R C LFE Ls Rs
Sampling rate                            : 48.0 kHz
Frame rate                               : 31.250 FPS (1536 SPF)
Compression mode                         : Lossy
Stream size                              : 551 MiB (10%)
Language                                 : English
Service kind                             : Complete Main
Default                                  : Yes
Forced                                   : No

Text #1
ID                                       : 3
Format                                   : PGS
Muxing mode                              : zlib
Codec ID                                 : S_HDMV/PGS
Codec ID/Info                            : Picture based subtitle format used on BDs/HD-DVDs
Duration                                 : 1 h 55 min
Bit rate                                 : 42.1 kb/s
Count of elements                        : 3456
Stream size                              : 34.8 MiB (1%)
Title                                    : English SDH
Language                                 : English
Default                                  : No
Forced                                   : No

Text #2
ID                                       : 4
Format                                   : PGS
Muxing mode                              : zlib
Codec ID                                 : S_HDMV/PGS
Codec ID/Info                            : Picture based subtitle format used on BDs/HD-DVDs
Duration                                 : 1 h 59 min
Bit rate                                 : 27.1 kb/s
Count of elements                        : 2958
Stream size                              : 23.1 MiB (0%)
Title                                    : French
Language                                 : French
Default                                  : No
Forced                                   : No

Text #3
ID                                       : 5
Format                                   : PGS
Muxing mode                              : zlib
Codec ID                                 : S_HDMV/PGS
Codec ID/Info                            : Picture based subtitle format used on BDs/HD-DVDs
Duration                                 : 1 h 59 min
Bit rate                                 : 30.3 kb/s
Count of elements                        : 2854
Stream size                              : 25.9 MiB (0%)
Title                                    : Chinese
Language                                 : Chinese
Default                                  : No
Forced                                   : No

Text #4
ID                                       : 6
Format                                   : PGS
Muxing mode                              : zlib
Codec ID                                 : S_HDMV/PGS
Codec ID/Info                            : Picture based subtitle format used on BDs/HD-DVDs
Duration                                 : 1 h 53 min
Bit rate                                 : 35.7 kb/s
Count of elements                        : 2852
Stream size                              : 29.1 MiB (1%)
Title                                    : Korean
Language                                 : Korean
Default                                  : No
Forced                                   : No

Text #5
ID                                       : 7
Format                                   : PGS
Muxing mode                              : zlib
Codec ID                                 : S_HDMV/PGS
Codec ID/Info                            : Picture based subtitle format used on BDs/HD-DVDs
Duration                                 : 1 h 59 min
Bit rate                                 : 31.1 kb/s
Count of elements                        : 2836
Stream size                              : 26.5 MiB (0%)
Title                                    : Spanish
Language                                 : Spanish
Default                                  : No
Forced                                   : No

Text #6
ID                                       : 8
Format                                   : PGS
Muxing mode                              : zlib
Codec ID                                 : S_HDMV/PGS
Codec ID/Info                            : Picture based subtitle format used on BDs/HD-DVDs
Duration                                 : 1 h 3 min
Bit rate                                 : 3 113 b/s
Count of elements                        : 132
Stream size                              : 1.42 MiB (0%)
Title                                    : French
Language                                 : French
Default                                  : No
Forced                                   : No

Text #7
ID                                       : 9
Format                                   : PGS
Muxing mode                              : zlib
Codec ID                                 : S_HDMV/PGS
Codec ID/Info                            : Picture based subtitle format used on BDs/HD-DVDs
Duration                                 : 1 h 48 min
Bit rate                                 : 2 351 b/s
Count of elements                        : 182
Stream size                              : 1.82 MiB (0%)
Title                                    : Spanish
Language                                 : Spanish
Default                                  : No
Forced                                   : No

Menu
00:00:00.000                             : en:Chapter 01
00:11:54.213                             : en:Chapter 02
00:21:18.277                             : en:Chapter 03
00:31:28.970                             : en:Chapter 04
00:40:19.459                             : en:Chapter 05
00:50:07.838                             : en:Chapter 06
01:00:41.346                             : en:Chapter 07
01:10:19.882                             : en:Chapter 08
01:19:52.204                             : en:Chapter 09
01:30:13.325                             : en:Chapter 10
01:39:26.502                             : en:Chapter 11
01:47:53.217                             : en:Chapter 12
01:54:00.667                             : en:Chapter 13
02:00:15.959                             : en:Chapter 14

de1088255be0a898ba88c76fbfdff98a.jpg





                                                                                                                                                                                                        
                                                                                                                                                                                                                                                                                                                                                                                                                                                                                                                                                                                                                                                                                                                                                                                                                                                        
3c1fcbec54b3ef1d717e3be8c67b8fd6.torrent (14.68 KB, 下载次数: 0)

回复

使用道具 举报

小黑屋|西西论坛

本网站所有资源来自网络,如无意中侵犯了您的权益,请发邮件至 [email protected],立即清除相关链接

GMT+8, 2022-6-27 05:07 , Processed in 0.115908 second(s), 17 queries .

Powered by Discuz! X3.2

© 2001-2013 Comsenz Inc.

快速回复 返回顶部 返回列表