西西论坛

 找回密码
 立即注册
搜索

后裔 The.Offspring.1987.1080p.BluRay.x264-WATCHABLE 16.55GB

[复制链接]
admin 发表于 2021-12-22 10:51:32 | 显示全部楼层 |阅读模式
后裔 The.Offspring.1987.1080p.BluRay.x264-WATCHABLE 16.55GB                                                                                                                                                                                                                                                                                                                                                                                                                                                                                                                                        -->
帖子完整标题:后裔 The.Offspring.1987.1080p.BluRay.x264-WATCHABLE 16.55GB



3e8d4ace7c1812dba686755b0ae8c6ee.jpg



◎译  名 后裔/From a Whisper to a Scream
◎片  名 The Offspring
◎年  代 1987
◎产  地 美国
◎类  别 剧情 / 动作 / 惊悚 / 恐怖
◎语  言 英语
◎上映日期 1987
◎豆瓣评分 /10 from 0 users
◎豆瓣链接 
◎片  长 99 分钟
◎导  演 杰夫·伯尔 Jeff Burr
◎编  剧 达林·斯科特 Darin Scott / 杰夫·伯尔 Jeff Burr
◎主  演 文森特·普莱斯 Vincent Price
       克鲁·古拉格 Clu Gulager
       特利·奇瑟 Terry Kiser
       Gene Witham Gene Witham
       Alan White Alan White
       巴尼·布尔曼 Barney Burman
       C·杰·寇科斯  C. Jay Cox
       苏珊·泰瑞尔 Susan Tyrrell
       Angelo Rossitto Angelo Rossitto
       玛蒂妮·贝丝维克 Martine Beswick
       劳伦斯·蒂尔尼 Lawrence Tierney
       卡梅隆·米切尔 Cameron Mitchell
       Miriam Byrd-Nethery Miriam Byrd-Nethery
       哈利·凯撒 Harry Caesar
       戴维·戴尔·瓦莱 David Del Valle
       鲍伯·汉纳 Bob Hannah
       特伦斯·诺克斯 Terence Knox
       罗萨琳德·卡什 Rosalind Cash

◎标  签 恐怖 | 惊悚 | 美国 | 科幻 | 分段式 | 美国电影 | 章节 | 文森特·普莱斯

◎简  介

  因犯杀人罪被处决的大叔向记者奥德菲尔德讲述了在他故乡的4 个故事:一位老人爱上了一个年轻女人,甚至严重到进入坟墓之后......一名受伤的男子被一个蛮荒的隐士赋予了永恒的生命... 一个吃玻璃的戏班演员为寻找爱情而付出了最终的代价...内战的士兵是由一个家庭的孤儿与他们奇怪的意图而俘虏。
Video
ID                                       : 1
Format                                   : AVC
Format/Info                              : Advanced Video Codec
Format profile                           :
Format settings                          : CABAC / 4 Ref Frames
Format settings, CABAC                   : Yes
Format settings, Reference frames        : 4 frames
Codec ID                                 : V_MPEG4/ISO/AVC
Duration                                 : 1 h 39 min
Bit rate                                 : 22.9 Mb/s
Width                                    : 1 920 pixels
Height                                   : 1 040 pixels
Display aspect ratio                     : 1.85:1
Frame rate mode                          : Constant
Frame rate                               : 23.976 (24000/1001/189150) FPS
Color space                              : YUV
Chroma subsampling                       : 4:2:0
Bit depth                                : 8 bits
Scan type                                : Progressive
Bits/(Pixel*Frame)                       : 0.478
Stream size                              : 15.9 GiB (96%)
Writing library                          : x264 core 164 r3079 d9a19f0
Encoding settings                        : cabac=1 / ref=4 / deblock=1:-3:-3 / analyse=0x3:0x133 / me=umh / subme=9 / psy=1 / psy_rd=1.00:0.00 / mixed_ref=1 / me_range=16 / chroma_me=1 / trellis=2 / 8x8dct=1 / cqm=0 / deadzone=21,11 / fast_pskip=0 / chroma_qp_offset=-2 / threads=24 / lookahead_threads=2 / sliced_threads=0 / nr=0 / decimate=0 / interlaced=0 / bluray_compat=0 / constrained_intra=0 / bframes=3 / b_pyramid=2 / b_adapt=2 / b_bias=0 / direct=1 / weightb=1 / open_gop=0 / weightp=2 / keyint=240 / keyint_min=23 / scenecut=40 / intra_refresh=0 / rc_lookahead=60 / rc=crf / mbtree=0 / crf=20.0 / qcomp=0.60 / qpmin=0 / qpmax=69 / qpstep=4 / vbv_maxrate=62500 / vbv_bufsize=78125 / crf_max=0.0 / nal_hrd=none / filler=0 / ip_ratio=1.40 / pb_ratio=1.30 / aq=3:0.70
Default                                  : Yes
Forced                                   : No
Color range                              : Limited
Matrix coefficients                      : BT.709

Audio #1
ID                                       : 2
Format                                   : FLAC
Format/Info                              : Free Lossless Audio Codec
Codec ID                                 : A_FLAC
Duration                                 : 1 h 39 min
Bit rate mode                            : Variable
Bit rate                                 : 437 kb/s
Channel(s)                               : 2 channels
Channel layout                           : L R
Sampling rate                            : 48.0 kHz
Frame rate                               : 11.719 FPS (4096 SPF)
Bit depth                                : 24 bits
Compression mode                         : Lossless
Stream size                              : 311 MiB (2%)
Writing library                          : libFLAC 1.3.3 (UTC 2019-08-04)
Language                                 : English
Default                                  : Yes
Forced                                   : No

Audio #2
ID                                       : 3
Format                                   : AAC LC
Format/Info                              : Advanced Audio Codec Low Complexity
Codec ID                                 : A_AAC-2
Duration                                 : 1 h 39 min
Bit rate                                 : 98.7 kb/s
Channel(s)                               : 2 channels
Channel layout                           : L R
Sampling rate                            : 48.0 kHz
Frame rate                               : 46.875 FPS (1024 SPF)
Compression mode                         : Lossy
Stream size                              : 70.3 MiB (0%)
Title                                    : Commentary track with Jeff Burr
Language                                 : English
Default                                  : Yes
Forced                                   : No

Audio #3
ID                                       : 4
Format                                   : AAC LC
Format/Info                              : Advanced Audio Codec Low Complexity
Codec ID                                 : A_AAC-2
Duration                                 : 1 h 39 min
Bit rate                                 : 90.6 kb/s
Channel(s)                               : 2 channels
Channel layout                           : L R
Sampling rate                            : 48.0 kHz
Frame rate                               : 46.875 FPS (1024 SPF)
Compression mode                         : Lossy
Stream size                              : 64.5 MiB (0%)
Title                                    : Commentary track with Darin Scott and Courtney Joyner
Language                                 : English
Default                                  : Yes
Forced                                   : No

Audio #4
ID                                       : 5
Format                                   : AAC LC
Format/Info                              : Advanced Audio Codec Low Complexity
Codec ID                                 : A_AAC-2
Duration                                 : 1 h 39 min
Bit rate                                 : 96.0 kb/s
Channel(s)                               : 2 channels
Channel layout                           : L R
Sampling rate                            : 48.0 kHz
Frame rate                               : 46.875 FPS (1024 SPF)
Compression mode                         : Lossy
Stream size                              : 67.1 MiB (0%)
Title                                    : Commentary track with David Del Valle and Mike Melone
Language                                 : English
Default                                  : Yes
Forced                                   : No

Text #1
ID                                       : 6
Format                                   : PGS
Muxing mode                              : zlib
Codec ID                                 : S_HDMV/PGS
Codec ID/Info                            : Picture based subtitle format used on BDs/HD-DVDs
Duration                                 : 1 h 37 min
Bit rate                                 : 29.4 kb/s
Count of elements                        : 2080
Stream size                              : 20.5 MiB (0%)
Title                                    : German Full Subtitles
Language                                 : German
Default                                  : No
Forced                                   : No

Text #2
ID                                       : 7
Format                                   : PGS
Muxing mode                              : zlib
Codec ID                                 : S_HDMV/PGS
Codec ID/Info                            : Picture based subtitle format used on BDs/HD-DVDs
Duration                                 : 1 h 39 min
Bit rate                                 : 31.6 kb/s
Count of elements                        : 2352
Stream size                              : 22.5 MiB (0%)
Title                                    : German SDH Subtitles
Language                                 : German
Default                                  : No
Forced                                   : No

Text #3
ID                                       : 8
Format                                   : UTF-8
Codec ID                                 : S_TEXT/UTF8
Codec ID/Info                            : UTF-8 Plain Text
Duration                                 : 1 h 34 min
Bit rate                                 : 44 b/s
Count of elements                        : 1099
Stream size                              : 30.8 KiB (0%)
Title                                    : English Full Subtitles
Language                                 : English
Default                                  : No
Forced                                   : No

Text #4
ID                                       : 9
Format                                   : PGS
Muxing mode                              : zlib
Codec ID                                 : S_HDMV/PGS
Codec ID/Info                            : Picture based subtitle format used on BDs/HD-DVDs
Duration                                 : 1 h 34 min
Bit rate                                 : 26.9 kb/s
Count of elements                        : 2194
Stream size                              : 18.3 MiB (0%)
Title                                    : English Full Subtitles
Language                                 : English
Default                                  : No
Forced                                   : No

Text #5
ID                                       : 10
Format                                   : UTF-8
Codec ID                                 : S_TEXT/UTF8
Codec ID/Info                            : UTF-8 Plain Text
Duration                                 : 1 h 36 min
Bit rate                                 : 46 b/s
Count of elements                        : 1240
Stream size                              : 33.2 KiB (0%)
Title                                    : English SDH Subtitles
Language                                 : English
Default                                  : No
Forced                                   : No

Text #6
ID                                       : 11
Format                                   : PGS
Muxing mode                              : zlib
Codec ID                                 : S_HDMV/PGS
Codec ID/Info                            : Picture based subtitle format used on BDs/HD-DVDs
Duration                                 : 1 h 36 min
Bit rate                                 : 29.4 kb/s
Count of elements                        : 2478
Stream size                              : 20.3 MiB (0%)
Title                                    : English SDH Subtitles
Language                                 : English
Default                                  : No
Forced                                   : No

Text #7
ID                                       : 12
Format                                   : PGS
Muxing mode                              : zlib
Codec ID                                 : S_HDMV/PGS
Codec ID/Info                            : Picture based subtitle format used on BDs/HD-DVDs
Duration                                 : 1 h 39 min
Bit rate                                 : 61.7 kb/s
Count of elements                        : 2968
Stream size                              : 43.9 MiB (0%)
Title                                    : German Commentary Subtitles with Jeff Burr
Language                                 : German
Default                                  : No
Forced                                   : No

Text #8
ID                                       : 13
Format                                   : PGS
Muxing mode                              : zlib
Codec ID                                 : S_HDMV/PGS
Codec ID/Info                            : Picture based subtitle format used on BDs/HD-DVDs
Duration                                 : 1 h 39 min
Bit rate                                 : 60.5 kb/s
Count of elements                        : 3076
Stream size                              : 43.1 MiB (0%)
Title                                    : English Commentary Subtitles with Jeff Burr
Language                                 : English
Default                                  : No
Forced                                   : No

Text #9
ID                                       : 14
Format                                   : PGS
Muxing mode                              : zlib
Codec ID                                 : S_HDMV/PGS
Codec ID/Info                            : Picture based subtitle format used on BDs/HD-DVDs
Duration                                 : 1 h 39 min
Bit rate                                 : 62.3 kb/s
Count of elements                        : 3352
Stream size                              : 44.4 MiB (0%)
Title                                    : German Commentary Subtitles with Darin Scott and Courtney Joyner
Language                                 : German
Default                                  : No
Forced                                   : No

Text #10
ID                                       : 15
Format                                   : PGS
Muxing mode                              : zlib
Codec ID                                 : S_HDMV/PGS
Codec ID/Info                            : Picture based subtitle format used on BDs/HD-DVDs
Duration                                 : 1 h 39 min
Bit rate                                 : 60.5 kb/s
Count of elements                        : 3454
Stream size                              : 43.0 MiB (0%)
Title                                    : English Commentary Subtitles with Darin Scott and Courtney Joyner
Language                                 : English
Default                                  : No
Forced                                   : No

Text #11
ID                                       : 16
Format                                   : PGS
Muxing mode                              : zlib
Codec ID                                 : S_HDMV/PGS
Codec ID/Info                            : Picture based subtitle format used on BDs/HD-DVDs
Duration                                 : 1 h 39 min
Bit rate                                 : 72.0 kb/s
Count of elements                        : 3748
Stream size                              : 51.2 MiB (0%)
Title                                    : German Commentary Subtitles with David Del Valle and Mike Melone
Language                                 : German
Default                                  : No
Forced                                   : No

Text #12
ID                                       : 17
Format                                   : PGS
Muxing mode                              : zlib
Codec ID                                 : S_HDMV/PGS
Codec ID/Info                            : Picture based subtitle format used on BDs/HD-DVDs
Duration                                 : 1 h 39 min
Bit rate                                 : 69.1 kb/s
Count of elements                        : 4256
Stream size                              : 49.2 MiB (0%)
Title                                    : English Commentary Subtitles with David Del Valle and Mike Melone
Language                                 : English
Default                                  : No
Forced                                   : No

Menu
00:00:00.000                             : en:Chapter 01
00:02:16.720                             : en:Chapter 02
00:04:01.658                             : en:Chapter 03
00:08:05.485                             : en:Chapter 04
00:16:13.556                             : en:Chapter 05
00:24:14.411                             : en:Chapter 06
00:28:07.394                             : en:Chapter 07
00:32:22.774                             : en:Chapter 08
00:34:14.052                             : en:Chapter 09
00:37:59.277                             : en:Chapter 10
00:45:55.586                             : en:Chapter 11
00:50:58.138                             : en:Chapter 12
00:54:43.280                             : en:Chapter 13
00:56:37.603                             : en:Chapter 14
01:00:43.306                             : en:Chapter 15
01:06:39.078                             : en:Chapter 16
01:10:20.466                             : en:Chapter 17
01:13:58.601                             : en:Chapter 18
01:14:42.687                             : en:Chapter 19
01:18:31.749                             : en:Chapter 20
01:25:16.737                             : en:Chapter 21
01:29:33.868                             : en:Chapter 22
01:34:35.003                             : en:Chapter 23
01:36:59.564                             : en:Chapter 24

808e4a76e4507d93a5ee0a004609d813.png

[/url]34b4ba5cde0ff030738335f047696098.png

[/url]fadefb7bb6ead3dcb26f94c6965e921e.png

[/url]



                                                                                                                                                                                                        
                                                                                                                                                                                                                                                                                                                                                                                                                                                                                                                                                                                                                                                                                                                                                                                                                                                        
43754bdb08e1e0dcaa450b3182301524.torrent (21.38 KB, 下载次数: 0)

回复

使用道具 举报

小黑屋|西西论坛

本网站所有资源来自网络,如无意中侵犯了您的权益,请发邮件至 [email protected],立即清除相关链接

GMT+8, 2022-1-20 03:49 , Processed in 0.113759 second(s), 17 queries .

Powered by Discuz! X3.2

© 2001-2013 Comsenz Inc.

快速回复 返回顶部 返回列表