西西论坛

 找回密码
 立即注册
搜索

盛夏光年 Eternal.Summer.2006.1080p.BluRay.x264-RUSTED 9.96GB

[复制链接]
admin 发表于 2021-12-22 10:51:27 | 显示全部楼层 |阅读模式
盛夏光年 Eternal.Summer.2006.1080p.BluRay.x264-RUSTED 9.96GB                                                                                                                                                                                                                                                                                                                                                                                                                                                                                                                                        -->
帖子完整标题:盛夏光年 Eternal.Summer.2006.1080p.BluRay.x264-RUSTED 9.96GB



97cf57a35548dd44881629c006b3d395.jpg



◎译  名 Eternal Summer
◎片  名 盛夏光年
◎年  代 2006
◎产  地 中国台湾
◎类  别 剧情 / 爱情 / 同性
◎语  言 汉语普通话
◎上映日期 2006-10-13(中国台湾)
◎豆瓣评分 7.2/10 from 120307 users
◎豆瓣链接 
◎片  长 105 分钟(未删减版)
◎导  演 陈正道 Leste Chen
◎编  剧 许正平 Cheng-Ping Hsu / 王继尧 Chi-yao Wang / 陈正道 Leste Chen
◎主  演 张睿家 Bryant Chang
       张孝全 Joseph Chang
       杨淇 Kate Yeung

◎标  签 台湾 | 青春 | 同性 | LGBT | 2006 | 中国台湾 | 剧情 | 文艺

◎简  介

  康正行(张睿家 饰)就读于一件海边小学,身为班长的他被老师任命陪伴一个多动症的小孩余守恒(张孝全 饰),慢慢影响他,让他变成一个乖孩子。两个人在成长的过程中成为了好朋友,但在康正行心里的这份友谊却变质了。
  
  一天,一个叫慧嘉(杨淇 饰)的女孩出现在他们面前,这个寂寞的女孩很快喜欢上了正行,但正行心里爱着的却是另外一个人。慧嘉知道了正行心意后,跟他成为了好朋友。守恒也开始追求慧嘉,守恒却不想太早让正行知道,他觉得正行跟慧嘉都是他生命中不可或缺的人。各自怀有秘密的他们生活开始变得混乱,终于他们在海边说出了自己的秘密……

◎获奖情况

  第43届台北金马影展 ?(2006)
  金马奖最佳男配角(提名) 张孝全
  金马奖最佳新演员 张睿家
  金马奖最佳新演员(提名) 张孝全
  金马奖最佳原创歌曲(提名) 陈信宏
  
  第11届釜山国际电影节 ?(2006)
  新浪潮奖(提名) 陈正道
  
  第7届华语电影传媒大奖 ?(2007)
  最佳新演员(提名) 张孝全
Video
ID                                       : 1
Format                                   : AVC
Format/Info                              : Advanced Video Codec
Format profile                           :
Format settings                          : CABAC / 5 Ref Frames
Format settings, CABAC                   : Yes
Format settings, Reference frames        : 5 frames
Codec ID                                 : V_MPEG4/ISO/AVC
Duration                                 : 1 h 36 min
Bit rate                                 : 11.3 Mb/s
Width                                    : 1 920 pixels
Height                                   : 804 pixels
Display aspect ratio                     : 2.40:1
Frame rate mode                          : Constant
Frame rate                               : 24.000 FPS
Color space                              : YUV
Chroma subsampling                       : 4:2:0
Bit depth                                : 8 bits
Scan type                                : Progressive
Bits/(Pixel*Frame)                       : 0.305
Stream size                              : 7.61 GiB (76%)
Writing library                          : x264 core 164 r3079 d9a19f0
Encoding settings                        : cabac=1 / ref=5 / deblock=1:-3:-3 / analyse=0x3:0x133 / me=umh / subme=9 / psy=1 / psy_rd=1.00:0.00 / mixed_ref=1 / me_range=16 / chroma_me=1 / trellis=2 / 8x8dct=1 / cqm=0 / deadzone=21,11 / fast_pskip=0 / chroma_qp_offset=-2 / threads=24 / lookahead_threads=2 / sliced_threads=0 / nr=0 / decimate=0 / interlaced=0 / bluray_compat=0 / constrained_intra=0 / bframes=3 / b_pyramid=2 / b_adapt=2 / b_bias=0 / direct=3 / weightb=1 / open_gop=0 / weightp=2 / keyint=250 / keyint_min=24 / scenecut=40 / intra_refresh=0 / rc=crf / mbtree=0 / crf=20.0 / qcomp=0.60 / qpmin=0 / qpmax=69 / qpstep=4 / ip_ratio=1.40 / pb_ratio=1.30 / aq=3:0.70
Language                                 : English
Default                                  : Yes
Forced                                   : No
Color range                              : Limited
Matrix coefficients                      : BT.709

Audio #1
ID                                       : 2
Format                                   : MLP FBA
Format/Info                              : Meridian Lossless Packing FBA
Commercial name                          : Dolby TrueHD
Codec ID                                 : A_TRUEHD
Duration                                 : 1 h 36 min
Bit rate mode                            : Variable
Bit rate                                 : 2 756 kb/s
Maximum bit rate                         : 4 437 kb/s
Channel(s)                               : 6 channels
Channel layout                           : L R C LFE Ls Rs
Sampling rate                            : 48.0 kHz
Frame rate                               : 1 200.000 FPS (40 SPF)
Compression mode                         : Lossless
Stream size                              : 1.86 GiB (19%)
Language                                 : Chinese
Default                                  : Yes
Forced                                   : No

Audio #2
ID                                       : 3
Format                                   : AC-3
Format/Info                              : Audio Coding 3
Commercial name                          : Dolby Digital
Codec ID                                 : A_AC3
Duration                                 : 1 h 36 min
Bit rate mode                            : Constant
Bit rate                                 : 640 kb/s
Channel(s)                               : 6 channels
Channel layout                           : L R C LFE Ls Rs
Sampling rate                            : 48.0 kHz
Frame rate                               : 31.250 FPS (1536 SPF)
Compression mode                         : Lossy
Stream size                              : 441 MiB (4%)
Language                                 : Chinese
Service kind                             : Complete Main
Default                                  : Yes
Forced                                   : No

Text #1
ID                                       : 4
Format                                   : UTF-8
Codec ID                                 : S_TEXT/UTF8
Codec ID/Info                            : UTF-8 Plain Text
Duration                                 : 1 h 30 min
Bit rate                                 : 29 b/s
Count of elements                        : 888
Stream size                              : 19.5 KiB (0%)
Title                                    : English (SRT)
Language                                 : English
Default                                  : Yes
Forced                                   : Yes

Text #2
ID                                       : 5
Format                                   : PGS
Muxing mode                              : zlib
Codec ID                                 : S_HDMV/PGS
Codec ID/Info                            : Picture based subtitle format used on BDs/HD-DVDs
Duration                                 : 1 h 30 min
Bit rate                                 : 31.7 kb/s
Count of elements                        : 1456
Stream size                              : 20.7 MiB (0%)
Title                                    : English
Language                                 : English
Default                                  : No
Forced                                   : No

Text #3
ID                                       : 6
Format                                   : PGS
Muxing mode                              : zlib
Codec ID                                 : S_HDMV/PGS
Codec ID/Info                            : Picture based subtitle format used on BDs/HD-DVDs
Duration                                 : 1 h 30 min
Bit rate                                 : 27.4 kb/s
Count of elements                        : 1555
Stream size                              : 17.8 MiB (0%)
Title                                    : Chinese
Language                                 : Chinese
Default                                  : No
Forced                                   : No

Menu
00:00:00.000                             : en:Chapter 01
00:10:30.167                             : en:Chapter 02
00:19:42.708                             : en:Chapter 03
00:29:51.000                             : en:Chapter 04
00:39:10.167                             : en:Chapter 05
00:46:42.625                             : en:Chapter 06
00:55:17.000                             : en:Chapter 07
01:06:36.958                             : en:Chapter 08
01:15:59.292                             : en:Chapter 09
01:26:30.333                             : en:Chapter 10

db2741d4c09930390af629da62480c4f.jpg





                                                                                                                                                                                                        
                                                                                                                                                                                                                                                                                                                                                                                                                                                                                                                                                                                                                                                                                                                                                                                                                                                        
f08626430113962232adcf9b6b27f111.torrent (25.65 KB, 下载次数: 0)

回复

使用道具 举报

小黑屋|西西论坛

本网站所有资源来自网络,如无意中侵犯了您的权益,请发邮件至 [email protected],立即清除相关链接

GMT+8, 2022-6-27 03:59 , Processed in 0.119125 second(s), 17 queries .

Powered by Discuz! X3.2

© 2001-2013 Comsenz Inc.

快速回复 返回顶部 返回列表