西西论坛

 找回密码
 立即注册
搜索

沙丘战将/沙丘流浪者 Dune.Drifter.2020.720p.BluRay.x264-FREEMAN 4.11GB

[复制链接]
admin 发表于 2021-12-22 10:51:22 | 显示全部楼层 |阅读模式
沙丘战将/沙丘流浪者 Dune.Drifter.2020.720p.BluRay.x264-FREEMAN 4.11GB                                                                                                                                                                                                                                                                                                                                                                                                                                                                                                                                        -->
帖子完整标题:沙丘战将/沙丘流浪者 Dune.Drifter.2020.720p.BluRay.x264-FREEMAN 4.11GB



48f1fcf31d0309be6d68f8ffb4bcdd8d.jpg



◎译  名 沙丘战将/沙丘流浪者
◎片  名 Dune Drifter
◎年  代 2020
◎产  地 英国
◎类  别 科幻
◎语  言 英语
◎上映日期 2020-10-24(伦敦恐怖电影节)
◎豆瓣评分 3.4/10 from 73 users
◎豆瓣链接 
◎片  长 98分钟
◎主  演 菲比·斯帕罗 Phoebe Sparrow

◎标  签 科幻 | 2020 | 小成本 | 英国 | 惊悚 | 演技差、剧情差、人设差 | 沙丘流浪者 | 英影

◎简  介

  After a devastating orbital space battle, the survivor of a crashed star-fighter must navigate the harsh environment of a desolate planet to save herself before her life support expires.
Video
ID                                       : 1
Format                                   : AVC
Format/Info                              : Advanced Video Codec
Format profile                           :
Format settings                          : CABAC / 8 Ref Frames
Format settings, CABAC                   : Yes
Format settings, Reference frames        : 8 frames
Codec ID                                 : V_MPEG4/ISO/AVC
Duration                                 : 1 h 30 min
Bit rate                                 : 5 887 kb/s
Width                                    : 1 280 pixels
Height                                   : 538 pixels
Display aspect ratio                     : 2.40:1
Frame rate mode                          : Constant
Frame rate                               : 23.976 (24000/1001/189150) FPS
Color space                              : YUV
Chroma subsampling                       : 4:2:0
Bit depth                                : 8 bits
Scan type                                : Progressive
Bits/(Pixel*Frame)                       : 0.357
Stream size                              : 3.70 GiB (90%)
Writing library                          : x264 core 164 r3079 d9a19f0
Encoding settings                        : cabac=1 / ref=8 / deblock=1:-3:-3 / analyse=0x3:0x133 / me=umh / subme=9 / psy=1 / psy_rd=1.00:0.00 / mixed_ref=1 / me_range=16 / chroma_me=1 / trellis=2 / 8x8dct=1 / cqm=0 / deadzone=21,11 / fast_pskip=0 / chroma_qp_offset=-2 / threads=17 / lookahead_threads=1 / sliced_threads=0 / nr=0 / decimate=1 / interlaced=0 / bluray_compat=0 / constrained_intra=0 / bframes=3 / b_pyramid=2 / b_adapt=2 / b_bias=0 / direct=3 / weightb=1 / open_gop=0 / weightp=2 / keyint=250 / keyint_min=23 / scenecut=40 / intra_refresh=0 / rc_lookahead=60 / rc=crf / mbtree=1 / crf=17.0 / qcomp=0.60 / qpmin=0 / qpmax=69 / qpstep=4 / ip_ratio=1.40 / aq=3:1.00
Default                                  : Yes
Forced                                   : No
Color range                              : Limited
Matrix coefficients                      : BT.709

Audio
ID                                       : 2
Format                                   : AC-3
Format/Info                              : Audio Coding 3
Commercial name                          : Dolby Digital
Codec ID                                 : A_AC3
Duration                                 : 1 h 30 min
Bit rate mode                            : Constant
Bit rate                                 : 640 kb/s
Channel(s)                               : 6 channels
Channel layout                           : L R C LFE Ls Rs
Sampling rate                            : 48.0 kHz
Frame rate                               : 31.250 FPS (1536 SPF)
Compression mode                         : Lossy
Stream size                              : 412 MiB (10%)
Language                                 : English
Service kind                             : Complete Main
Default                                  : Yes
Forced                                   : No

Text
ID                                       : 3
Format                                   : PGS
Muxing mode                              : zlib
Codec ID                                 : S_HDMV/PGS
Codec ID/Info                            : Picture based subtitle format used on BDs/HD-DVDs
Duration                                 : 1 h 25 min
Bit rate                                 : 254 b/s
Count of elements                        : 30
Stream size                              : 159 KiB (0%)
Language                                 : German
Default                                  : No
Forced                                   : No

Menu
00:00:00.000                             : en:00:00:00.000
00:07:45.048                             : en:00:07:45.048
00:16:47.548                             : en:00:16:47.548
00:23:49.970                             : en:00:23:49.970
00:31:59.459                             : en:00:31:59.459
00:40:15.455                             : en:00:40:15.455
00:50:59.556                             : en:00:50:59.556
01:00:07.354                             : en:01:00:07.354
01:05:26.798                             : en:01:05:26.798
01:12:27.760                             : en:01:12:27.760
01:19:56.875                             : en:01:19:56.875
01:26:45.992                             : en:01:26:45.992

2abd9a48d52f27dba4fbc5e487069348.jpg





                                                                                                                                                                                                        
                                                                                                                                                                                                                                                                                                                                                                                                                                                                                                                                                                                                                                                                                                                                                                                                                                                        
69850dc9baf9c63e711fc13feb1c7f12.torrent (21.23 KB, 下载次数: 0)

回复

使用道具 举报

小黑屋|西西论坛

本网站所有资源来自网络,如无意中侵犯了您的权益,请发邮件至 [email protected],立即清除相关链接

GMT+8, 2022-1-20 03:51 , Processed in 0.127603 second(s), 17 queries .

Powered by Discuz! X3.2

© 2001-2013 Comsenz Inc.

快速回复 返回顶部 返回列表