西西论坛

 找回密码
 立即注册
搜索

维拉·德雷克/因母之名 Vera.Drake.2004.720p.BluRay.x264-USURY 7.18GB

[复制链接]
admin 发表于 2021-12-20 12:50:41 | 显示全部楼层 |阅读模式
维拉·德雷克/因母之名 Vera.Drake.2004.720p.BluRay.x264-USURY 7.18GB                                                                                                                                                                                                                                                                                                                                                                                                                                                                                                                                        -->
帖子完整标题:维拉·德雷克/因母之名 Vera.Drake.2004.720p.BluRay.x264-USURY 7.18GB



fc519f96d3f8eeaf4b73616c0144dfe4.jpg



◎译  名 维拉·德雷克/因母之名/地下观音/天使薇拉卓克/爱心天使:薇拉卓克/维拉·德里克
◎片  名 Vera Drake
◎年  代 2004
◎产  地 法国,英国
◎类  别 剧情 / 犯罪
◎语  言 英语
◎上映日期 2004-10-22
◎豆瓣评分 8.0/10 from 2422 users
◎豆瓣链接 
◎片  长 125分钟(英国)
◎导  演 迈克·李 Mike Leigh
◎编  剧 迈克·李 Mike Leigh
◎主  演 艾美达·斯丹顿 Imelda Staunton
       理查德·格拉翰 Richard Graham
       埃迪·马森 Eddie Marsan
       吉姆·布劳德本特 Jim Broadbent
       莎莉·霍金斯 Sally Hawkins
       莱斯利·夏普 Lesley Sharp
       Anna Keaveney Anna Keaveney
       希瑟·克兰妮 Heather Craney
       鲁斯·西恩 Ruth Sheen
       伊莲恩·戴维斯 Eileen Davies
       Helen Coker Helen Coker
       艾丽克斯·凯利 Alex Kelly
       维森特·富兰克林 Vincent Franklin
       萝西·凯弗利洛 Rosie Cavaliero
       雯叶特·罗宾逊 Vinette Robinson
       阿德里安·斯卡伯勒 Adrian Scarborough
       山姆·特劳顿 Sam Troughton
       玛丽昂·贝利 Marion Bailey
       利兹·怀特 Liz White
       罗伯特·普特 Robert Putt
       汤姆·艾利斯 Tom Ellis
       大卫·豪斯 David House
       埃玛·阿莫斯 Emma Amos
       莱丝利·曼维尔 Lesley Manville
       克里斯·奥多德 Chris O'Dowd
       Heather Cameron Heather Cameron
       菲尔·戴维斯 Phil Davis
       尼古拉斯·琼斯 Nicholas Jones
       阿兰·柯德勒 Allan Corduner
       伊丽莎白·贝林顿 Elizabeth Berrington
       比莉·库克 Billie Cook
       James Payton James Payton
       里奥·比尔 Leo Bill
       Daniel Hatkoff Daniel Hatkoff
       费奈拉·伍尔加 Fenella Woolgar
       杰克·伍德 Jake Wood
       Tilly Vosburgh Tilly Vosburgh
       桑德拉·沃 Sandra Voe
       Paul Raffield Paul Raffield
       尼基·汉森 Nicky Henson
       丹尼尔·梅斯 Daniel Mays

◎标  签 英国 | 迈克·李 | 伦理 | 英国电影 | 2004 | 人性 | 金狮奖 | MikeLeigh

◎简  介

  故事发生在1950年的英国,战争给城市造成了巨大的伤害,在一片混乱中,一个名叫薇拉(伊梅尔达·斯汤顿 Imelda Staunton 饰)的女人与丈夫和儿女们勉强过着平静安定的生活。表面上看来,维拉是一个清洁女工,但一个秘密被深深的隐藏在她的心底。在空余的时间里,薇拉会通过好友莉莉(鲁斯·西恩 Ruth Sheen 饰)提供的手术室,帮助在战时怀孕的妇女堕胎,而之一举动在当时的英国是违法的。
  
  雷吉(埃迪·马森 Eddie Marsan 饰)的加入为薇拉的家庭又增添了一份快乐,他和薇拉的女儿埃塞尔(Alex Kelly 饰)的婚礼让所有人的面孔上都蒙上了喜气。在婚礼进行之时,门被敲响,可是,到来的并非友好的祝福,却是警察的逮捕,薇拉的所作所为被公之于众。

◎获奖情况

  第77届奥斯卡金像奖 ?(2005)
  最佳导演(提名) 迈克·李
  最佳女主角(提名) 艾美达·斯丹顿
  最佳原创剧本(提名) 迈克·李
  
  第61届威尼斯电影节 ?(2004)
  主竞赛单元金狮奖 迈克·李
  沃尔皮杯最佳女演员 艾美达·斯丹顿
  
  第62届金球奖 ?(2005)
  电影类剧情片最佳女主角(提名) 艾美达·斯丹顿
  
  第58届英国电影学院奖 ?(2005)
  电影奖最佳影片(提名) 西蒙·钱宁·威廉姆斯?/?阿兰·萨德
  电影奖最佳英国影片(提名) 西蒙·钱宁·威廉姆斯?/?迈克·李?/?阿兰·萨德
  电影奖最佳导演 迈克·李
  电影奖最佳女主角 艾美达·斯丹顿
  电影奖最佳男配角(提名) 菲尔·戴维斯
  电影奖最佳女配角(提名) 希瑟·克兰妮
  电影奖最佳原创剧本(提名) 迈克·李
  电影奖最佳剪辑(提名) 吉姆·克拉克
  电影奖最佳化妆/发型(提名) 克里斯汀·布伦戴尔
  电影奖最佳服装设计 杰奎琳·杜兰
  电影奖最佳艺术指导(提名) 伊芙·斯图尔特
Video
ID                                       : 1
Format                                   : AVC
Format/Info                              : Advanced Video Codec
Format profile                           :
Format settings                          : CABAC / 9 Ref Frames
Format settings, CABAC                   : Yes
Format settings, Reference frames        : 9 frames
Codec ID                                 : V_MPEG4/ISO/AVC
Duration                                 : 2 h 4 min
Bit rate                                 : 7 033 kb/s
Width                                    : 1 280 pixels
Height                                   : 696 pixels
Display aspect ratio                     : 1.85:1
Frame rate mode                          : Constant
Frame rate                               : 24.000 FPS
Color space                              : YUV
Chroma subsampling                       : 4:2:0
Bit depth                                : 8 bits
Scan type                                : Progressive
Bits/(Pixel*Frame)                       : 0.329
Stream size                              : 6.12 GiB (85%)
Writing library                          : x264 core 164 r3079 d9a19f0
Encoding settings                        : cabac=1 / ref=9 / deblock=1:-3:-3 / analyse=0x3:0x133 / me=umh / subme=10 / psy=1 / psy_rd=1.00:0.15 / mixed_ref=1 / me_range=24 / chroma_me=1 / trellis=2 / 8x8dct=1 / cqm=0 / deadzone=21,11 / fast_pskip=1 / chroma_qp_offset=-3 / threads=18 / lookahead_threads=3 / sliced_threads=0 / nr=0 / decimate=1 / interlaced=0 / bluray_compat=0 / constrained_intra=0 / bframes=8 / b_pyramid=2 / b_adapt=2 / b_bias=0 / direct=3 / weightb=1 / open_gop=0 / weightp=2 / keyint=250 / keyint_min=24 / scenecut=40 / intra_refresh=0 / rc_lookahead=60 / rc=crf / mbtree=1 / crf=17.0 / qcomp=0.60 / qpmin=0 / qpmax=69 / qpstep=4 / ip_ratio=1.40 / aq=3:0.50
Language                                 : English
Default                                  : Yes
Forced                                   : No

Audio
ID                                       : 2
Format                                   : FLAC
Format/Info                              : Free Lossless Audio Codec
Codec ID                                 : A_FLAC
Duration                                 : 2 h 4 min
Bit rate mode                            : Variable
Bit rate                                 : 1 185 kb/s
Channel(s)                               : 2 channels
Channel layout                           : L R
Sampling rate                            : 48.0 kHz
Frame rate                               : 11.719 FPS (4096 SPF)
Bit depth                                : 24 bits
Compression mode                         : Lossless
Stream size                              : 1.03 GiB (14%)
Writing library                          : libFLAC 1.2.1 (UTC 2007-09-17)
Language                                 : English
Default                                  : Yes
Forced                                   : No

Text #1
ID                                       : 3
Format                                   : UTF-8
Codec ID                                 : S_TEXT/UTF8
Codec ID/Info                            : UTF-8 Plain Text
Duration                                 : 1 h 57 min
Bit rate                                 : 64 b/s
Count of elements                        : 1725
Stream size                              : 55.5 KiB (0%)
Title                                    : English
Language                                 : English
Default                                  : No
Forced                                   : No

Text #2
ID                                       : 4
Format                                   : UTF-8
Codec ID                                 : S_TEXT/UTF8
Codec ID/Info                            : UTF-8 Plain Text
Duration                                 : 1 h 59 min
Bit rate                                 : 65 b/s
Count of elements                        : 1778
Stream size                              : 57.2 KiB (0%)
Title                                    : English SDH
Language                                 : English
Default                                  : No
Forced                                   : No

Text #3
ID                                       : 5
Format                                   : PGS
Muxing mode                              : zlib
Codec ID                                 : S_HDMV/PGS
Codec ID/Info                            : Picture based subtitle format used on BDs/HD-DVDs
Duration                                 : 1 h 59 min
Bit rate                                 : 14.2 kb/s
Count of elements                        : 3556
Stream size                              : 12.1 MiB (0%)
Title                                    : English SDH
Language                                 : English
Default                                  : No
Forced                                   : No

Text #4
ID                                       : 6
Format                                   : UTF-8
Codec ID                                 : S_TEXT/UTF8
Codec ID/Info                            : UTF-8 Plain Text
Duration                                 : 2 h 2 min
Bit rate                                 : 55 b/s
Count of elements                        : 1379
Stream size                              : 49.3 KiB (0%)
Title                                    : German
Language                                 : German
Default                                  : No
Forced                                   : No

Text #5
ID                                       : 7
Format                                   : PGS
Muxing mode                              : zlib
Codec ID                                 : S_HDMV/PGS
Codec ID/Info                            : Picture based subtitle format used on BDs/HD-DVDs
Duration                                 : 2 h 2 min
Bit rate                                 : 11.7 kb/s
Count of elements                        : 2758
Stream size                              : 10.2 MiB (0%)
Title                                    : German
Language                                 : German
Default                                  : No
Forced                                   : No

Menu
00:00:00.000                             : en:00:00:00.000
00:06:53.042                             : en:00:06:53.042
00:17:51.542                             : en:00:17:51.542
00:29:27.000                             : en:00:29:27.000
00:38:27.042                             : en:00:38:27.042
00:49:17.750                             : en:00:49:17.750
01:05:00.375                             : en:01:05:00.375
01:17:57.375                             : en:01:17:57.375
01:26:15.250                             : en:01:26:15.250
01:36:54.750                             : en:01:36:54.750
01:48:39.792                             : en:01:48:39.792
01:58:50.792                             : en:01:58:50.792

94682683230f3373c3f3aba4a5f857b5.jpg





                                                                                                                                                                                                        
                                                                                                                                                                                                                                                                                                                                                                                                                                                                                                                                                                                                                                                                                                                                                                                                                                                        
41515f64c41de5f21a642b7115531388.torrent (18.65 KB, 下载次数: 0)

回复

使用道具 举报

小黑屋|西西论坛

本网站所有资源来自网络,如无意中侵犯了您的权益,请发邮件至 [email protected],立即清除相关链接

GMT+8, 2022-1-20 03:37 , Processed in 0.115991 second(s), 17 queries .

Powered by Discuz! X3.2

© 2001-2013 Comsenz Inc.

快速回复 返回顶部 返回列表