西西论坛

 找回密码
 立即注册
搜索

狂怒/怒火 Fury.1936.720p.BluRay.x264-USURY 6.21GB

[复制链接]
admin 发表于 2021-12-20 12:50:38 | 显示全部楼层 |阅读模式
狂怒/怒火 Fury.1936.720p.BluRay.x264-USURY 6.21GB                                                                                                                                                                                                                                                                                                                                                                                                                                                                                                                                        -->
帖子完整标题:狂怒/怒火 Fury.1936.720p.BluRay.x264-USURY 6.21GB



e07dd8b5c3d3fb63c265654f4f8fc05f.jpg



◎译  名 狂怒/怒火
◎片  名 Fury
◎年  代 1936
◎产  地 美国
◎类  别 剧情 / 犯罪 / 黑色电影
◎语  言 英语
◎上映日期 1936-05-29
◎豆瓣评分 8.1/10 from 649 users
◎豆瓣链接 
◎片  长 92 分钟
◎导  演 弗里茨·朗 Fritz Lang
◎编  剧 弗里茨·朗 Fritz Lang / 巴特利特·科马克 Bartlett Cormack / 诺曼·克拉斯娜 Norman Krasna
◎主  演 西尔维娅·西德尼 Sylvia Sidney
       斯宾塞·屈塞 Spencer Tracy
       沃尔特·艾贝尔 Walter Abel
       Elsa Newell Elsa Newell
       King Mojave King Mojave
       Pat McKee Pat McKee
       Harry McCoy Harry McCoy
       埃德温·马克斯韦尔 Edwin Maxwell
       Wally Maher Wally Maher
       Roger Moore Roger Moore
       Field Norton Field Norton
       Franklin Parker Franklin Parker
       保罗·麦卡利斯特 Paul McAllister
       米拉·麦金尼 Mira McKinney
       Clarence Kolb Clarence Kolb
       罗伯特·霍曼斯 Robert Homans
       Si Jenks Si Jenks
       Sydney Jarvis Sydney Jarvis
       Tom Mahoney Tom Mahoney
       Robert Milasch Robert Milasch
       Sherry Hall Sherry Hall
       杰克·格雷 Jack Grey
       Al Herman Al Herman
       哈利·哈维 Harry Harvey
       哈里·海登 Harry Hayden
       William Newell William Newell
       小乔治·奥弗曼 George Offerman Jr.
       Albert Taylor Albert Taylor
       Arthur Stone Arthur Stone
       Gertrude Sutton Gertrude Sutton
       迪克·韦塞尔 Dick Wessel
       Buck Woods Buck Woods
       Florence Wix Florence Wix
       Morgan Wallace Morgan Wallace
       Huey White Huey White
       George Walcott George Walcott
       Dorothea Wolbert Dorothea Wolbert
       弗兰克·萨利 Frank Sully
       Carl Stockdale Carl Stockdale
       赛·欣德尔 Cy Schindell
       Ruth Renick Ruth Renick
       James Quinn James Quinn
       Christian Rub Christian Rub
       Ronald R. Rondell Ronald R. Rondell
       Everett Sullivan Everett Sullivan
       盖·厄舍 Guy Usher
       威廉·坦嫩 William Tannen
       米内尔娃·尤雷卡尔 Minerva Urecal
       查尔斯·沙利文 Charles Sullivan
       Esther Muir Esther Muir
       Edna Mae Harris Edna Mae Harris
       布鲁斯·卡伯特 Bruce Cabot
       Robert Dudley Robert Dudley
       Will Stanton Will Stanton
       霍华德·C·希克曼 Howard C. Hickman
       伯特·罗奇 Bert Roach
       默多克·麦夸里 Murdock MacQuarrie
       弗兰克·米尔斯 Frank Mills
       Herbert Ashley Herbert Ashley
       Ricca Allen Ricca Allen
       B.F. Blinn B.F. Blinn
       格温·李 Gwen Lee
       Sam Hayes Sam Hayes
       Victor Potel Victor Potel
       乔纳森·哈勒 Jonathan Hale
       丹尼斯·欧基夫 Dennis O'Keefe
       弗兰克·艾伯森 Frank Albertson
       马克·斯特朗 Mark Strong (I)
       雷蒙德·哈顿 Raymond Hatton
       Helen Flint Helen Flint
       Roger Gray Roger Gray
       沃尔特·布伦南 Walter Brennan
       Leila Bennett Leila Bennett
       Harry Burkhardt Harry Burkhardt
       西德尼·德格雷 Sidney De Gray
       Oliver Eckhardt Oliver Eckhardt
       Edgar Edwards Edgar Edwards
       海伦·迪克森 Helen Dickson
       Adolph Faylauer Adolph Faylauer
       Edward Ellis Edward Ellis
       亚瑟·霍伊特 Arthur Hoyt
       Oscar 'Dutch' Hendrian Oscar 'Dutch' Hendrian
       费·海姆 Fay Helm
       Daniel L. Haynes Daniel L. Haynes
       Raoul Freeman Raoul Freeman
       Harry Bowen Harry Bowen
       弗雷德里克·波顿 Frederick Burton
       哈维·克拉克 Harvey Clark
       朱尔斯·考尔斯 Jules Cowles
       Esther Dale Esther Dale
       Ed Brady Ed Brady
       Jane Corcoran Jane Corcoran
       Nora Cecil Nora Cecil
       基诺科拉多 Gino Corrado
       Raymond Brown Raymond Brown
       乔治·钱德勒 George Chandler
       Jack Daley Jack Daley
       Ben Hall Ben Hall

◎标  签 美国 | 弗里茨·朗 | 黑色电影 | 1930s | FritzLang | 1936 | 美国电影 | 犯罪

◎简  介

  乔(斯宾塞·屈塞 Spencer Tracy 饰)即将和未婚妻凯瑟琳(西尔维娅·西德尼 Sylvia Sidney 饰)携手步入婚姻的殿堂,就在这个节骨眼上,他却被怀疑是绑匪而遭到了警方的逮捕。在事件的真相还没有被调查清楚的情况下,终日生活在无聊之中的小镇居民们却将事情推向了风口浪尖,他们将乔视作是人中败类,试图冲击警察局,对这个他们认为十恶不赦的男人施以私行。最终的结果是,愤怒的民众放火烧毁了警察局。
  
  在这起事件中,22名小镇居民遭到了逮捕,并且进行了公开审理。让所有人没有想到的是,开庭那天,本以为葬身火海的乔竟然现身了,他回来的目的非常的单纯,那就是为自己复仇。

◎获奖情况

  第9届奥斯卡金像奖 ?(1937)
  最佳原创故事(提名) 诺曼·克拉斯娜
Video
ID                                       : 1
Format                                   : AVC
Format/Info                              : Advanced Video Codec
Format profile                           :
Format settings                          : CABAC / 11 Ref Frames
Format settings, CABAC                   : Yes
Format settings, Reference frames        : 11 frames
Codec ID                                 : V_MPEG4/ISO/AVC
Duration                                 : 1 h 32 min
Bit rate                                 : 8 917 kb/s
Width                                    : 986 pixels
Height                                   : 720 pixels
Display aspect ratio                     : 4:3
Frame rate mode                          : Constant
Frame rate                               : 23.976 (24000/1001/189150) FPS
Color space                              : YUV
Chroma subsampling                       : 4:2:0
Bit depth                                : 8 bits
Scan type                                : Progressive
Bits/(Pixel*Frame)                       : 0.524
Stream size                              : 5.76 GiB (93%)
Writing library                          : x264 core 164 r3079 d9a19f0
Encoding settings                        : cabac=1 / ref=11 / deblock=1:-3:-3 / analyse=0x3:0x133 / me=umh / subme=10 / psy=1 / psy_rd=1.00:0.15 / mixed_ref=1 / me_range=24 / chroma_me=1 / trellis=2 / 8x8dct=1 / cqm=0 / deadzone=21,11 / fast_pskip=1 / chroma_qp_offset=-3 / threads=18 / lookahead_threads=3 / sliced_threads=0 / nr=0 / decimate=1 / interlaced=0 / bluray_compat=0 / constrained_intra=0 / bframes=8 / b_pyramid=2 / b_adapt=2 / b_bias=0 / direct=3 / weightb=1 / open_gop=0 / weightp=2 / keyint=250 / keyint_min=23 / scenecut=40 / intra_refresh=0 / rc_lookahead=60 / rc=crf / mbtree=1 / crf=17.0 / qcomp=0.60 / qpmin=0 / qpmax=69 / qpstep=4 / ip_ratio=1.40 / aq=3:0.50
Language                                 : English
Default                                  : Yes
Forced                                   : No

Audio #1
ID                                       : 2
Format                                   : FLAC
Format/Info                              : Free Lossless Audio Codec
Codec ID                                 : A_FLAC
Duration                                 : 1 h 32 min
Bit rate mode                            : Variable
Bit rate                                 : 585 kb/s
Channel(s)                               : 2 channels
Channel layout                           : L R
Sampling rate                            : 48.0 kHz
Frame rate                               : 11.719 FPS (4096 SPF)
Bit depth                                : 24 bits
Compression mode                         : Lossless
Stream size                              : 387 MiB (6%)
Writing library                          : libFLAC 1.2.1 (UTC 2007-09-17)
Language                                 : English
Default                                  : Yes
Forced                                   : No

Audio #2
ID                                       : 3
Format                                   : AAC LC
Format/Info                              : Advanced Audio Codec Low Complexity
Codec ID                                 : A_AAC-2
Duration                                 : 1 h 32 min
Bit rate                                 : 87.9 kb/s
Channel(s)                               : 2 channels
Channel layout                           : L R
Sampling rate                            : 48.0 kHz
Frame rate                               : 46.875 FPS (1024 SPF)
Compression mode                         : Lossy
Delay relative to video                  : 9 ms
Stream size                              : 58.1 MiB (1%)
Title                                    : English Commentary by Peter Bogdanovich with Audio Interview Excerpts of Fritz Lang
Language                                 : English
Default                                  : No
Forced                                   : No

Text #1
ID                                       : 4
Format                                   : UTF-8
Codec ID                                 : S_TEXT/UTF8
Codec ID/Info                            : UTF-8 Plain Text
Duration                                 : 1 h 30 min
Bit rate                                 : 77 b/s
Count of elements                        : 1581
Stream size                              : 51.5 KiB (0%)
Title                                    : English
Language                                 : English
Default                                  : No
Forced                                   : No

Text #2
ID                                       : 5
Format                                   : UTF-8
Codec ID                                 : S_TEXT/UTF8
Codec ID/Info                            : UTF-8 Plain Text
Duration                                 : 1 h 32 min
Bit rate                                 : 80 b/s
Count of elements                        : 1701
Stream size                              : 54.0 KiB (0%)
Title                                    : English SDH
Language                                 : English
Default                                  : No
Forced                                   : No

Text #3
ID                                       : 6
Format                                   : PGS
Muxing mode                              : zlib
Codec ID                                 : S_HDMV/PGS
Codec ID/Info                            : Picture based subtitle format used on BDs/HD-DVDs
Duration                                 : 1 h 32 min
Bit rate                                 : 22.9 kb/s
Count of elements                        : 3402
Stream size                              : 15.1 MiB (0%)
Title                                    : English SDH
Language                                 : English
Default                                  : No
Forced                                   : No

Menu
00:00:00.000                             : en:00:00:00.000
00:01:03.063                             : en:00:01:03.063
00:07:10.889                             : en:00:07:10.889
00:10:37.387                             : en:00:10:37.387
00:15:15.289                             : en:00:15:15.289
00:20:23.681                             : en:00:20:23.681
00:22:48.075                             : en:00:22:48.075
00:25:14.138                             : en:00:25:14.138
00:29:50.330                             : en:00:29:50.330
00:34:27.607                             : en:00:34:27.607
00:38:10.038                             : en:00:38:10.038
00:43:13.716                             : en:00:43:13.716
00:48:52.930                             : en:00:48:52.930
00:53:45.431                             : en:00:53:45.431
00:57:15.932                             : en:00:57:15.932
00:59:58.428                             : en:00:59:58.428
01:02:06.264                             : en:01:02:06.264
01:05:15.703                             : en:01:05:15.703
01:10:27.765                             : en:01:10:27.765
01:15:16.721                             : en:01:15:16.721
01:19:56.542                             : en:01:19:56.542
01:25:11.523                             : en:01:25:11.523
01:29:13.348                             : en:01:29:13.348
01:32:03.518                             : en:01:32:03.518

d601ef8cd0cdd73701e9921c94f59fd1.jpg





                                                                                                                                                                                                        
                                                                                                                                                                                                                                                                                                                                                                                                                                                                                                                                                                                                                                                                                                                                                                                                                                                        
af46e69dc84ca433b709e12f1dd94efd.torrent (16.23 KB, 下载次数: 0)

回复

使用道具 举报

小黑屋|西西论坛

本网站所有资源来自网络,如无意中侵犯了您的权益,请发邮件至 [email protected],立即清除相关链接

GMT+8, 2022-1-20 03:29 , Processed in 0.105447 second(s), 17 queries .

Powered by Discuz! X3.2

© 2001-2013 Comsenz Inc.

快速回复 返回顶部 返回列表