西西论坛

 找回密码
 立即注册
搜索

原子伊甸园 Atomic.Eden.2015.720p.BluRay.x264-GUACAMOLE 2.98GB

[复制链接]
admin 发表于 2021-12-20 12:50:35 | 显示全部楼层 |阅读模式
原子伊甸园 Atomic.Eden.2015.720p.BluRay.x264-GUACAMOLE 2.98GB                                                                                                                                                                                                                                                                                                                                                                                                                                                                                                                                        -->
帖子完整标题:原子伊甸园 Atomic.Eden.2015.720p.BluRay.x264-GUACAMOLE 2.98GB



ab6275c4e91663108d845c7ffd3f88c3.jpg



◎译  名 原子伊甸园
◎片  名 Atomic Eden
◎年  代 2015
◎产  地 德国,美国,乌克兰
◎类  别 动作 / 惊悚 / 冒险
◎语  言 英语
◎上映日期 2015-11-12(科威特)
◎豆瓣评分 /10 from 0 users
◎豆瓣链接 
◎片  长 85分钟
◎导  演 Nico Sentner Nico Sentner
◎编  剧 Nico Sentner Nico Sentner
◎主  演 弗雷德·威廉森 Fred Williamson
       迈克·莫勒 Mike M?ller
       加藤叶月 Hazuki Kato
       洛伦佐·拉马斯 Lorenzo Lamas
       Nico Sentner Nico Sentner

◎标  签 美国 | 德国 | 动作

◎简  介

  影片讲述了一群国际雇佣兵在执行一项神秘的任务时意外地被困在一个破旧的开采场——切尔诺贝利的废墟。在弹尽粮绝且无法与外界获得联系的情况下,他们在那里遭遇了一群暴力狂人,为此所有人必须联合起来对抗这群入侵者。以8人之力顽抗800人,他们唯一的信念就是:绝不认输。
Video
ID                                       : 1
Format                                   : AVC
Format/Info                              : Advanced Video Codec
Format profile                           :
Format settings                          : CABAC / 8 Ref Frames
Format settings, CABAC                   : Yes
Format settings, Reference frames        : 8 frames
Codec ID                                 : V_MPEG4/ISO/AVC
Duration                                 : 1 h 27 min
Bit rate                                 : 4 250 kb/s
Width                                    : 1 280 pixels
Height                                   : 720 pixels
Display aspect ratio                     : 16:9
Frame rate mode                          : Constant
Frame rate                               : 24.000 FPS
Color space                              : YUV
Chroma subsampling                       : 4:2:0
Bit depth                                : 8 bits
Scan type                                : Progressive
Bits/(Pixel*Frame)                       : 0.192
Stream size                              : 2.59 GiB (87%)
Writing library                          : x264 core 164 r3075 66a5bc1
Encoding settings                        : cabac=1 / ref=8 / deblock=1:-3:-3 / analyse=0x3:0x133 / me=umh / subme=9 / psy=1 / psy_rd=1.00:0.00 / mixed_ref=1 / me_range=16 / chroma_me=1 / trellis=2 / 8x8dct=1 / cqm=0 / deadzone=21,11 / fast_pskip=0 / chroma_qp_offset=-2 / threads=22 / lookahead_threads=1 / sliced_threads=0 / nr=0 / decimate=1 / interlaced=0 / bluray_compat=0 / constrained_intra=0 / bframes=3 / b_pyramid=2 / b_adapt=2 / b_bias=0 / direct=3 / weightb=1 / open_gop=0 / weightp=2 / keyint=250 / keyint_min=24 / scenecut=40 / intra_refresh=0 / rc_lookahead=60 / rc=crf / mbtree=1 / crf=17.0 / qcomp=0.60 / qpmin=0 / qpmax=69 / qpstep=4 / ip_ratio=1.40 / aq=3:1.00
Default                                  : Yes
Forced                                   : No
Color range                              : Limited
Matrix coefficients                      : BT.709

Audio
ID                                       : 2
Format                                   : AC-3
Format/Info                              : Audio Coding 3
Commercial name                          : Dolby Digital
Codec ID                                 : A_AC3
Duration                                 : 1 h 27 min
Bit rate mode                            : Constant
Bit rate                                 : 640 kb/s
Channel(s)                               : 6 channels
Channel layout                           : L R C LFE Ls Rs
Sampling rate                            : 48.0 kHz
Frame rate                               : 31.250 FPS (1536 SPF)
Compression mode                         : Lossy
Stream size                              : 399 MiB (13%)
Language                                 : English
Service kind                             : Complete Main
Default                                  : Yes
Forced                                   : No

Text #1
ID                                       : 3
Format                                   : PGS
Muxing mode                              : zlib
Codec ID                                 : S_HDMV/PGS
Codec ID/Info                            : Picture based subtitle format used on BDs/HD-DVDs
Duration                                 : 1 h 19 min
Bit rate                                 : 19.9 kb/s
Count of elements                        : 993
Stream size                              : 11.4 MiB (0%)
Language                                 : English
Default                                  : No
Forced                                   : No

Text #2
ID                                       : 4
Format                                   : PGS
Muxing mode                              : zlib
Codec ID                                 : S_HDMV/PGS
Codec ID/Info                            : Picture based subtitle format used on BDs/HD-DVDs
Duration                                 : 1 h 19 min
Bit rate                                 : 22.8 kb/s
Count of elements                        : 992
Stream size                              : 13.0 MiB (0%)
Language                                 : German
Default                                  : No
Forced                                   : No

Menu
00:00:00.000                             : en:00:00:00.000
00:06:54.750                             : en:00:06:54.750
00:13:31.875                             : en:00:13:31.875
00:16:48.667                             : en:00:16:48.667
00:24:04.083                             : en:00:24:04.083
00:30:06.208                             : en:00:30:06.208
00:36:57.333                             : en:00:36:57.333
00:45:38.833                             : en:00:45:38.833
00:57:43.667                             : en:00:57:43.667
01:07:40.542                             : en:01:07:40.542
01:15:30.333                             : en:01:15:30.333
01:20:35.000                             : en:01:20:35.000

5904791fecef0c55bb3d1ee86dfdbb25.jpg





                                                                                                                                                                                                        
                                                                                                                                                                                                                                                                                                                                                                                                                                                                                                                                                                                                                                                                                                                                                                                                                                                        
b568929572a3a70143b72d0a51cf4517.torrent (30.53 KB, 下载次数: 0)

回复

使用道具 举报

小黑屋|西西论坛

本网站所有资源来自网络,如无意中侵犯了您的权益,请发邮件至 [email protected],立即清除相关链接

GMT+8, 2022-1-20 03:15 , Processed in 0.113273 second(s), 17 queries .

Powered by Discuz! X3.2

© 2001-2013 Comsenz Inc.

快速回复 返回顶部 返回列表