西西论坛

 找回密码
 立即注册
搜索

晚宴/八时晚宴 Dinner.at.Eight.1933.720p.BluRay.x264-USURY 4.97GB

[复制链接]
admin 发表于 2021-12-20 12:50:15 | 显示全部楼层 |阅读模式
晚宴/八时晚宴 Dinner.at.Eight.1933.720p.BluRay.x264-USURY 4.97GB                                                                                                                                                                                                                                                                                                                                                                                                                                                                                                                                        -->
帖子完整标题:晚宴/八时晚宴 Dinner.at.Eight.1933.720p.BluRay.x264-USURY 4.97GB



cdf08cc5564ddfaeeb4a9cae685a6b81.jpg



◎译  名 晚宴/八时晚宴/八时餐会(港)/八点钟晚宴/晚餐八点
◎片  名 Dinner at Eight
◎年  代 1933
◎产  地 美国
◎类  别 剧情 / 喜剧
◎语  言 英语
◎上映日期 1933-08-23
◎豆瓣评分 6.8/10 from 148 users
◎豆瓣链接 
◎片  长 111 分钟(Turner library print)
◎导  演 乔治·库克 George Cukor
◎编  剧 唐纳德·奥格登·斯图尔特 Donald Ogden Stewart / 弗朗西丝·玛丽恩 Frances Marion / 乔治·S·考夫曼 George S. Kaufman / 艾德娜·费勃 Edna Ferber / 赫尔曼·J·曼凯维奇 Herman J. Mankiewicz
◎主  演 玛丽·杜丝勒 Marie Dressler
       约翰·巴里摩尔 John Barrymore
       珍·哈露 Jean Harlow
       华莱士·比里 Wallace Beery
       Louise Closser Hale Louise Closser Hale
       Phoebe Foster Phoebe Foster
       Mary Dees Mary Dees
       Anna Duncan Anna Duncan
       约翰·戴维森 John Davidson
       格兰特·米切尔 Grant Mitchell
       埃德温·马克斯韦尔 Edwin Maxwell
       梅·罗布森 May Robson
       Hilda Vaughn Hilda Vaughn
       李·屈赛 Lee Tracy
       爱德华·伍兹 Edward Woods
       Harry Beresford Harry Beresford
       赫尔曼·宾  Herman Bing
       爱德蒙·罗威 Edmund Lowe
       碧莉·伯克 Billie Burke
       卡伦·莫利 Karen Morley
       玛吉·伊万斯 Madge Evans
       让·赫肖尔特 Jean Hersholt
       伊丽莎白·帕特森 Elizabeth Patterson
       菲利浦·霍尔姆斯 Phillips Holmes
       莱昂纳尔·巴里摩尔 Lionel Barrymore
       George Baxter George Baxter

◎标  签 美国 | 喜剧 | 美国电影 | 1930s | 乔治·库克 | GeorgeCukor | JeanHarlow | George_Cukor

◎简  介

  奥利弗(莱昂纳尔·巴里摩尔 Lionel Barrymore 饰)是一名海运业大亨,经济大萧条让他的产业遭到了众创,为了维持生计,他决定举办一场晚宴,邀请财力雄厚的公爵夫妇参加,以打通人脉获得经济上的支持。
  
  卡洛塔(玛丽·杜丝勒 Marie Dressler 饰)是奥利弗曾经的情人,身为演员的她有过一段辉煌的岁月,但现如今早已过气,她收到了奥利弗的邀请。帕克(华莱士·比里 Wallace Beery 饰)是撞了大运的暴发户,虽然他十分看不上奥利弗的人品,但在这场晚宴里他看到了商机,于是也准备出席。奥利弗的女儿波拉(玛吉·伊万斯 Madge Evans 饰)爱上了男演员拉瑞(约翰·巴里摩尔 John Barrymore 饰),她决定在晚宴上向他求爱。
Video
ID                                       : 1
Format                                   : AVC
Format/Info                              : Advanced Video Codec
Format profile                           :
Format settings                          : CABAC / 11 Ref Frames
Format settings, CABAC                   : Yes
Format settings, Reference frames        : 11 frames
Codec ID                                 : V_MPEG4/ISO/AVC
Duration                                 : 1 h 50 min
Bit rate                                 : 5 800 kb/s
Width                                    : 986 pixels
Height                                   : 720 pixels
Display aspect ratio                     : 4:3
Frame rate mode                          : Constant
Frame rate                               : 23.976 (24000/1001/189150) FPS
Color space                              : YUV
Chroma subsampling                       : 4:2:0
Bit depth                                : 8 bits
Scan type                                : Progressive
Bits/(Pixel*Frame)                       : 0.341
Stream size                              : 4.50 GiB (90%)
Writing library                          : x264 core 164 r3079 d9a19f0
Encoding settings                        : cabac=1 / ref=11 / deblock=1:-3:-3 / analyse=0x3:0x133 / me=umh / subme=10 / psy=1 / psy_rd=1.00:0.15 / mixed_ref=1 / me_range=24 / chroma_me=1 / trellis=2 / 8x8dct=1 / cqm=0 / deadzone=21,11 / fast_pskip=1 / chroma_qp_offset=-3 / threads=18 / lookahead_threads=3 / sliced_threads=0 / nr=0 / decimate=1 / interlaced=0 / bluray_compat=0 / constrained_intra=0 / bframes=8 / b_pyramid=2 / b_adapt=2 / b_bias=0 / direct=3 / weightb=1 / open_gop=0 / weightp=2 / keyint=250 / keyint_min=23 / scenecut=40 / intra_refresh=0 / rc_lookahead=60 / rc=crf / mbtree=1 / crf=17.0 / qcomp=0.60 / qpmin=0 / qpmax=69 / qpstep=4 / ip_ratio=1.40 / aq=3:0.50
Language                                 : English
Default                                  : Yes
Forced                                   : No

Audio
ID                                       : 2
Format                                   : FLAC
Format/Info                              : Free Lossless Audio Codec
Codec ID                                 : A_FLAC
Duration                                 : 1 h 50 min
Bit rate mode                            : Variable
Bit rate                                 : 587 kb/s
Channel(s)                               : 2 channels
Channel layout                           : L R
Sampling rate                            : 48.0 kHz
Frame rate                               : 11.719 FPS (4096 SPF)
Bit depth                                : 24 bits
Compression mode                         : Lossless
Stream size                              : 466 MiB (9%)
Writing library                          : libFLAC 1.2.1 (UTC 2007-09-17)
Language                                 : English
Default                                  : Yes
Forced                                   : No

Text #1
ID                                       : 3
Format                                   : UTF-8
Codec ID                                 : S_TEXT/UTF8
Codec ID/Info                            : UTF-8 Plain Text
Duration                                 : 1 h 48 min
Bit rate                                 : 83 b/s
Count of elements                        : 2037
Stream size                              : 66.1 KiB (0%)
Title                                    : English
Language                                 : English
Default                                  : No
Forced                                   : No

Text #2
ID                                       : 4
Format                                   : UTF-8
Codec ID                                 : S_TEXT/UTF8
Codec ID/Info                            : UTF-8 Plain Text
Duration                                 : 1 h 50 min
Bit rate                                 : 83 b/s
Count of elements                        : 2095
Stream size                              : 67.3 KiB (0%)
Title                                    : English SDH
Language                                 : English
Default                                  : No
Forced                                   : No

Text #3
ID                                       : 5
Format                                   : PGS
Muxing mode                              : zlib
Codec ID                                 : S_HDMV/PGS
Codec ID/Info                            : Picture based subtitle format used on BDs/HD-DVDs
Duration                                 : 1 h 50 min
Bit rate                                 : 23.4 kb/s
Count of elements                        : 4190
Stream size                              : 18.5 MiB (0%)
Title                                    : English SDH
Language                                 : English
Default                                  : No
Forced                                   : No

Menu
00:00:00.000                             : en:00:00:00.000
00:02:01.121                             : en:00:02:01.121
00:06:55.582                             : en:00:06:55.582
00:11:22.432                             : en:00:11:22.432
00:15:51.367                             : en:00:15:51.367
00:20:22.096                             : en:00:20:22.096
00:25:13.846                             : en:00:25:13.846
00:29:14.711                             : en:00:29:14.711
00:31:33.892                             : en:00:31:33.892
00:34:17.514                             : en:00:34:17.514
00:39:30.910                             : en:00:39:30.910
00:43:31.400                             : en:00:43:31.400
00:50:37.993                             : en:00:50:37.993
00:53:52.229                             : en:00:53:52.229
00:59:43.955                             : en:00:59:43.955
01:03:07.784                             : en:01:03:07.784
01:04:50.053                             : en:01:04:50.053
01:10:20.133                             : en:01:10:20.133
01:12:51.659                             : en:01:12:51.659
01:20:45.841                             : en:01:20:45.841
01:27:36.126                             : en:01:27:36.126
01:30:32.510                             : en:01:30:32.510
01:34:03.638                             : en:01:34:03.638
01:39:15.616                             : en:01:39:15.616
01:43:03.302                             : en:01:43:03.302
01:48:07.940                             : en:01:48:07.940
01:50:37.714                             : en:01:50:37.714

331dd5c7f75fab431e1439ad09400479.jpg





                                                                                                                                                                                                        
                                                                                                                                                                                                                                                                                                                                                                                                                                                                                                                                                                                                                                                                                                                                                                                                                                                        
863d47789914cbbfdf1461b38cee95bc.torrent (25.58 KB, 下载次数: 0)

回复

使用道具 举报

小黑屋|西西论坛

本网站所有资源来自网络,如无意中侵犯了您的权益,请发邮件至 [email protected],立即清除相关链接

GMT+8, 2022-1-20 04:51 , Processed in 0.124534 second(s), 17 queries .

Powered by Discuz! X3.2

© 2001-2013 Comsenz Inc.

快速回复 返回顶部 返回列表