西西论坛

 找回密码
 立即注册
搜索

杀人 To.Kill.a.Man.2014.720p.BluRay.x264-USURY 1.93GB

[复制链接]
admin 发表于 2021-12-20 12:50:12 | 显示全部楼层 |阅读模式
杀人 To.Kill.a.Man.2014.720p.BluRay.x264-USURY 1.93GB                                                                                                                                                                                                                                                                                                                                                                                                                                                                                                                                        -->
帖子完整标题:杀人 To.Kill.a.Man.2014.720p.BluRay.x264-USURY 1.93GB



d19bb11174757b172966aedbca8699a6.jpg



◎译  名 杀人/To Kill a Man/杀死一个人
◎片  名 Matar a un Hombre
◎年  代 2014
◎产  地 法国,智利
◎类  别 剧情
◎语  言 西班牙语
◎上映日期 2014-01-17(圣丹斯电影节)
◎豆瓣评分 6.6/10 from 265 users
◎豆瓣链接 
◎片  长 82分钟
◎导  演 亚历杭德罗·费尔南德斯·阿尔门德拉斯 Alejandro Fernández Almendras
◎编  剧 亚历杭德罗·费尔南德斯·阿尔门德拉斯 Alejandro Fernández Almendras
◎主  演 Daniel Candia Daniel Candia

◎标  签 智利 | 犯罪 | 剧情 | 2014 | 法国 | 智利电影 | 亚历杭德罗·费尔南德斯·阿尔门德拉斯 | 西班牙

◎简  介

  智利申奥送选片,根据真实事件改编,一个老实本份的中产阶级男人,被一个流氓恶霸不断的欺压凌辱 搞得妻离子散,最后奋起反击的故事。

◎获奖情况

  第30届圣丹斯电影节 ?(2014)
  评审团大奖世界电影单元剧情片 亚历杭德罗·费尔南德斯·阿尔门德拉斯
Video
ID                                       : 1
Format                                   : AVC
Format/Info                              : Advanced Video Codec
Format profile                           :
Format settings                          : CABAC / 12 Ref Frames
Format settings, CABAC                   : Yes
Format settings, Reference frames        : 12 frames
Codec ID                                 : V_MPEG4/ISO/AVC
Duration                                 : 1 h 22 min
Bit rate                                 : 2 721 kb/s
Width                                    : 1 280 pixels
Height                                   : 536 pixels
Display aspect ratio                     : 2.40:1
Frame rate mode                          : Constant
Frame rate                               : 24.000 FPS
Color space                              : YUV
Chroma subsampling                       : 4:2:0
Bit depth                                : 8 bits
Scan type                                : Progressive
Bits/(Pixel*Frame)                       : 0.165
Stream size                              : 1.56 GiB (81%)
Writing library                          : x264 core 164 r3079 d9a19f0
Encoding settings                        : cabac=1 / ref=12 / deblock=1:-3:-3 / analyse=0x3:0x133 / me=umh / subme=10 / psy=1 / psy_rd=1.00:0.15 / mixed_ref=1 / me_range=24 / chroma_me=1 / trellis=2 / 8x8dct=1 / cqm=0 / deadzone=21,11 / fast_pskip=1 / chroma_qp_offset=-3 / threads=17 / lookahead_threads=2 / sliced_threads=0 / nr=0 / decimate=1 / interlaced=0 / bluray_compat=0 / constrained_intra=0 / bframes=8 / b_pyramid=2 / b_adapt=2 / b_bias=0 / direct=3 / weightb=1 / open_gop=0 / weightp=2 / keyint=250 / keyint_min=24 / scenecut=40 / intra_refresh=0 / rc_lookahead=60 / rc=crf / mbtree=1 / crf=16.0 / qcomp=0.60 / qpmin=0 / qpmax=69 / qpstep=4 / ip_ratio=1.40 / aq=3:0.60
Language                                 : English
Default                                  : Yes
Forced                                   : No

Audio
ID                                       : 2
Format                                   : AC-3
Format/Info                              : Audio Coding 3
Commercial name                          : Dolby Digital
Codec ID                                 : A_AC3
Duration                                 : 1 h 22 min
Bit rate mode                            : Constant
Bit rate                                 : 640 kb/s
Channel(s)                               : 6 channels
Channel layout                           : L R C LFE Ls Rs
Sampling rate                            : 48.0 kHz
Frame rate                               : 31.250 FPS (1536 SPF)
Compression mode                         : Lossy
Stream size                              : 376 MiB (19%)
Language                                 : Spanish
Service kind                             : Complete Main
Default                                  : Yes
Forced                                   : No

Text #1
ID                                       : 3
Format                                   : UTF-8
Codec ID                                 : S_TEXT/UTF8
Codec ID/Info                            : UTF-8 Plain Text
Duration                                 : 1 h 15 min
Bit rate                                 : 26 b/s
Count of elements                        : 421
Stream size                              : 14.7 KiB (0%)
Title                                    : English
Language                                 : English
Default                                  : Yes
Forced                                   : Yes

Text #2
ID                                       : 4
Format                                   : UTF-8
Codec ID                                 : S_TEXT/UTF8
Codec ID/Info                            : UTF-8 Plain Text
Duration                                 : 1 h 19 min
Bit rate                                 : 26 b/s
Count of elements                        : 480
Stream size                              : 15.5 KiB (0%)
Title                                    : German
Language                                 : German
Default                                  : No
Forced                                   : No

Text #3
ID                                       : 5
Format                                   : PGS
Muxing mode                              : zlib
Codec ID                                 : S_HDMV/PGS
Codec ID/Info                            : Picture based subtitle format used on BDs/HD-DVDs
Duration                                 : 1 h 19 min
Bit rate                                 : 4 246 b/s
Count of elements                        : 959
Stream size                              : 2.43 MiB (0%)
Title                                    : German
Language                                 : German
Default                                  : No
Forced                                   : No

Menu
00:00:00.000                             : en:00:00:00.000
00:08:00.958                             : en:00:08:00.958
00:14:27.833                             : en:00:14:27.833
00:17:39.792                             : en:00:17:39.792
00:25:09.500                             : en:00:25:09.500
00:29:16.792                             : en:00:29:16.792
00:35:19.458                             : en:00:35:19.458
00:40:03.250                             : en:00:40:03.250
00:47:27.958                             : en:00:47:27.958
00:56:26.458                             : en:00:56:26.458
00:59:59.000                             : en:00:59:59.000
01:06:48.292                             : en:01:06:48.292
01:17:35.792                             : en:01:17:35.792

47456152314f402e478eb0ca5f47e2f1.jpg





                                                                                                                                                                                                        
                                                                                                                                                                                                                                                                                                                                                                                                                                                                                                                                                                                                                                                                                                                                                                                                                                                        
6eba72c6e5ac38519829c28dd3578482.torrent (20.03 KB, 下载次数: 0)

回复

使用道具 举报

小黑屋|西西论坛

本网站所有资源来自网络,如无意中侵犯了您的权益,请发邮件至 [email protected],立即清除相关链接

GMT+8, 2022-6-27 05:12 , Processed in 0.107442 second(s), 17 queries .

Powered by Discuz! X3.2

© 2001-2013 Comsenz Inc.

快速回复 返回顶部 返回列表