西西论坛

 找回密码
 立即注册
搜索

跨越大西洋的恋人 Aviva.2020.720p.BluRay.x264-BiPOLAR 3.14GB

[复制链接]
admin 发表于 2021-12-20 12:50:09 | 显示全部楼层 |阅读模式
跨越大西洋的恋人 Aviva.2020.720p.BluRay.x264-BiPOLAR 3.14GB                                                                                                                                                                                                                                                                                                                                                                                                                                                                                                                                        -->
帖子完整标题:跨越大西洋的恋人 Aviva.2020.720p.BluRay.x264-BiPOLAR 3.14GB



fdc40759716e1581f549a6f56dd99354.jpg



◎译  名 跨越大西洋的恋人
◎片  名 Aviva
◎年  代 2020
◎产  地 美国
◎类  别 剧情 / 爱情 / 音乐
◎上映日期 2020-03(西南偏南电影节)
◎豆瓣评分 /10 from 0 users
◎豆瓣链接 
◎片  长 116分钟
◎导  演 鲍兹·亚金 Boaz Yakin
◎编  剧 鲍兹·亚金 Boaz Yakin
◎主  演 Tyler Phillips Tyler Phillips

◎标  签 美国 | 舞蹈 | LGBT | 同性 | 剧情 | Boaz_Yakin | 紐約 | 私人

◎简  介

  A unique exploration into romantic connection and gender dynamics, 'Aviva' tells the story of a relationship between a man and a woman, with each of the two principal characters played by both a man and a woman. It's the story of a marriage that develops and eventually dissolves, evolving into deep friendship-all told through a mix of traditional dramatic scenes and expressive dance sequences.
Video
ID                                       : 1
Format                                   : AVC
Format/Info                              : Advanced Video Codec
Format profile                           :
Format settings                          : CABAC / 9 Ref Frames
Format settings, CABAC                   : Yes
Format settings, Reference frames        : 9 frames
Codec ID                                 : V_MPEG4/ISO/AVC
Duration                                 : 1 h 55 min
Bit rate                                 : 3 242 kb/s
Width                                    : 1 280 pixels
Height                                   : 688 pixels
Display aspect ratio                     : 1.85:1
Frame rate mode                          : Constant
Frame rate                               : 24.000 FPS
Color space                              : YUV
Chroma subsampling                       : 4:2:0
Bit depth                                : 8 bits
Scan type                                : Progressive
Bits/(Pixel*Frame)                       : 0.153
Stream size                              : 2.62 GiB (83%)
Writing library                          : x264 core 164 r3075 66a5bc1
Encoding settings                        : cabac=1 / ref=9 / deblock=1:-3:-3 / analyse=0x3:0x133 / me=umh / subme=10 / psy=1 / psy_rd=1.00:0.15 / mixed_ref=1 / me_range=24 / chroma_me=1 / trellis=2 / 8x8dct=1 / cqm=0 / deadzone=21,11 / fast_pskip=1 / chroma_qp_offset=-3 / threads=21 / lookahead_threads=3 / sliced_threads=0 / nr=0 / decimate=1 / interlaced=0 / bluray_compat=0 / constrained_intra=0 / bframes=8 / b_pyramid=2 / b_adapt=2 / b_bias=0 / direct=3 / weightb=1 / open_gop=0 / weightp=2 / keyint=250 / keyint_min=24 / scenecut=40 / intra_refresh=0 / rc_lookahead=60 / rc=crf / mbtree=1 / crf=17.0 / qcomp=0.60 / qpmin=0 / qpmax=69 / qpstep=4 / ip_ratio=1.40 / aq=3:0.60
Language                                 : English
Default                                  : Yes
Forced                                   : No
Color range                              : Limited
Matrix coefficients                      : BT.709

Audio
ID                                       : 2
Format                                   : AC-3
Format/Info                              : Audio Coding 3
Commercial name                          : Dolby Digital
Codec ID                                 : A_AC3
Duration                                 : 1 h 55 min
Bit rate mode                            : Constant
Bit rate                                 : 640 kb/s
Channel(s)                               : 6 channels
Channel layout                           : L R C LFE Ls Rs
Sampling rate                            : 48.0 kHz
Frame rate                               : 31.250 FPS (1536 SPF)
Compression mode                         : Lossy
Stream size                              : 529 MiB (16%)
Language                                 : English
Service kind                             : Complete Main
Default                                  : Yes
Forced                                   : No

Text #1
ID                                       : 3
Format                                   : UTF-8
Codec ID                                 : S_TEXT/UTF8
Codec ID/Info                            : UTF-8 Plain Text
Duration                                 : 1 h 52 min
Bit rate                                 : 59 b/s
Count of elements                        : 1638
Stream size                              : 48.8 KiB (0%)
Title                                    : English
Language                                 : English
Default                                  : No
Forced                                   : No

Text #2
ID                                       : 4
Format                                   : UTF-8
Codec ID                                 : S_TEXT/UTF8
Codec ID/Info                            : UTF-8 Plain Text
Duration                                 : 1 h 52 min
Bit rate                                 : 63 b/s
Count of elements                        : 1754
Stream size                              : 52.2 KiB (0%)
Title                                    : English SDH
Language                                 : English
Default                                  : No
Forced                                   : No

Text #3
ID                                       : 5
Format                                   : PGS
Muxing mode                              : zlib
Codec ID                                 : S_HDMV/PGS
Codec ID/Info                            : Picture based subtitle format used on BDs/HD-DVDs
Duration                                 : 1 h 53 min
Bit rate                                 : 37.6 kb/s
Count of elements                        : 3509
Stream size                              : 30.5 MiB (1%)
Title                                    : English SDH
Language                                 : English
Default                                  : No
Forced                                   : No

Menu
00:00:00.000                             : :Chapter 01
00:13:59.417                             : :Chapter 02
00:26:56.125                             : :Chapter 03
00:42:27.583                             : :Chapter 04
00:58:05.833                             : :Chapter 05
01:10:50.750                             : :Chapter 06
01:26:38.042                             : :Chapter 07
01:39:57.208                             : :Chapter 08

32bb28ece6e5a1b87299dfd9fab8e0b5.jpg





                                                                                                                                                                                                        
                                                                                                                                                                                                                                                                                                                                                                                                                                                                                                                                                                                                                                                                                                                                                                                                                                                        
17cd60daa4f04acb21c91538f50cd718.torrent (16.42 KB, 下载次数: 0)

回复

使用道具 举报

小黑屋|西西论坛

本网站所有资源来自网络,如无意中侵犯了您的权益,请发邮件至 [email protected],立即清除相关链接

GMT+8, 2022-1-20 04:33 , Processed in 0.113433 second(s), 17 queries .

Powered by Discuz! X3.2

© 2001-2013 Comsenz Inc.

快速回复 返回顶部 返回列表