西西论坛

 找回密码
 立即注册
搜索

灿实也多福 Lucky.Chan-sil.2019.720p.BluRay.x264-BiPOLAR 2.52GB

[复制链接]
admin 发表于 2021-12-20 12:50:06 | 显示全部楼层 |阅读模式
灿实也多福 Lucky.Chan-sil.2019.720p.BluRay.x264-BiPOLAR 2.52GB                                                                                                                                                                                                                                                                                                                                                                                                                                                                                                                                        -->
帖子完整标题:灿实也多福 Lucky.Chan-sil.2019.720p.BluRay.x264-BiPOLAR 2.52GB



32a9fcc884be367fab2f7268ffcfabaf.jpg



◎译  名 灿实也多福/Lucky Chan-sil/冷室里有很多走廊/福气啦!灿实(台)
◎片  名 ???? ?? ??
◎年  代 2019
◎产  地 韩国
◎类  别 剧情 / 爱情
◎语  言 韩语
◎上映日期 2019-10-05(釜山电影节) / 2020-03-05(韩国)
◎豆瓣评分 6.6/10 from 1425 users
◎豆瓣链接 
◎片  长 96分钟
◎导  演 金初熙 Cho-hee Kim
◎编  剧 金初熙 Cho-hee Kim
◎主  演 姜末琴 Mal-Geum Kang
       尹汝贞 Yeo-jeong Yoon
       金永敏 Young-min Kim
       尹胜雅 Seung-ah Yun
       裴侑蓝 Bae Yoo-ram
       徐尚沅 Sang Won Seo
       文惠仁 Hyein Moon
       李慧雅 Hyea Lee
       崔华静 Hwa-jeong Choi
       李英珍 Young-jin Lee
       申锡镐 Shin Seok-Ho

◎标  签 韩国 | 剧情 | 黑色幽默 | 文艺 | 爱情 | 独立 | 犯罪 | 音乐剧

◎简  介

  没有男人也没有家的导演李灿实在糟糕演员苏菲的家里做着保姆的工作。
  
  有一天,苏菲的法语老师金荣进入了灿实的生活中,随之登场的叫做“张国荣”的男人的身份也让剧情进入了新的高潮。房东奶奶暖心的举动也无时无刻温暖着灿实。之前一直忙前忙后的灿实在丢了工作以后也将迎来自己的春天吗?

◎获奖情况

  第41届韩国电影青龙奖 ?(2020)
  最佳新人导演(提名) 金初熙
  最佳新人女演员 姜末琴
  
  第56届百想艺术大赏 ?(2020)
  电影类最佳男配角(提名) 金永敏
  电影类最佳新人女演员 姜末琴
  电影类最佳新人导演(提名) 金初熙
Video
ID                                       : 1
Format                                   : AVC
Format/Info                              : Advanced Video Codec
Format profile                           :
Format settings                          : CABAC / 9 Ref Frames
Format settings, CABAC                   : Yes
Format settings, Reference frames        : 9 frames
Codec ID                                 : V_MPEG4/ISO/AVC
Duration                                 : 1 h 35 min
Bit rate                                 : 3 100 kb/s
Width                                    : 1 280 pixels
Height                                   : 694 pixels
Display aspect ratio                     : 1.85:1
Frame rate mode                          : Constant
Frame rate                               : 23.976 (24000/1001/189150) FPS
Color space                              : YUV
Chroma subsampling                       : 4:2:0
Bit depth                                : 8 bits
Scan type                                : Progressive
Bits/(Pixel*Frame)                       : 0.146
Stream size                              : 2.08 GiB (82%)
Writing library                          : x264 core 164 r3079 d9a19f0
Encoding settings                        : cabac=1 / ref=9 / deblock=1:-3:-3 / analyse=0x3:0x133 / me=umh / subme=10 / psy=1 / psy_rd=1.00:0.15 / mixed_ref=1 / me_range=24 / chroma_me=1 / trellis=2 / 8x8dct=1 / cqm=0 / deadzone=21,11 / fast_pskip=1 / chroma_qp_offset=-3 / threads=18 / lookahead_threads=3 / sliced_threads=0 / nr=0 / decimate=1 / interlaced=0 / bluray_compat=0 / constrained_intra=0 / bframes=8 / b_pyramid=2 / b_adapt=2 / b_bias=0 / direct=3 / weightb=1 / open_gop=0 / weightp=2 / keyint=250 / keyint_min=23 / scenecut=40 / intra_refresh=0 / rc_lookahead=60 / rc=crf / mbtree=1 / crf=16.0 / qcomp=0.60 / qpmin=0 / qpmax=69 / qpstep=4 / ip_ratio=1.40 / aq=3:0.80
Language                                 : English
Default                                  : Yes
Forced                                   : No
Color range                              : Limited
Matrix coefficients                      : BT.709

Audio
ID                                       : 2
Format                                   : AC-3
Format/Info                              : Audio Coding 3
Commercial name                          : Dolby Digital
Codec ID                                 : A_AC3
Duration                                 : 1 h 35 min
Bit rate mode                            : Constant
Bit rate                                 : 640 kb/s
Channel(s)                               : 6 channels
Channel layout                           : L R C LFE Ls Rs
Sampling rate                            : 48.0 kHz
Frame rate                               : 31.250 FPS (1536 SPF)
Compression mode                         : Lossy
Stream size                              : 439 MiB (17%)
Language                                 : Korean
Service kind                             : Complete Main
Default                                  : Yes
Forced                                   : No

Text #1
ID                                       : 3
Format                                   : UTF-8
Codec ID                                 : S_TEXT/UTF8
Codec ID/Info                            : UTF-8 Plain Text
Duration                                 : 1 h 35 min
Bit rate                                 : 38 b/s
Count of elements                        : 1039
Stream size                              : 26.7 KiB (0%)
Title                                    : English
Language                                 : English
Default                                  : Yes
Forced                                   : Yes

Text #2
ID                                       : 4
Format                                   : PGS
Muxing mode                              : zlib
Codec ID                                 : S_HDMV/PGS
Codec ID/Info                            : Picture based subtitle format used on BDs/HD-DVDs
Duration                                 : 1 h 35 min
Bit rate                                 : 7 840 b/s
Count of elements                        : 1853
Stream size                              : 5.36 MiB (0%)
Title                                    : English
Language                                 : English
Default                                  : No
Forced                                   : No

Text #3
ID                                       : 5
Format                                   : PGS
Muxing mode                              : zlib
Codec ID                                 : S_HDMV/PGS
Codec ID/Info                            : Picture based subtitle format used on BDs/HD-DVDs
Duration                                 : 1 h 35 min
Bit rate                                 : 8 781 b/s
Count of elements                        : 1876
Stream size                              : 6.00 MiB (0%)
Title                                    : Korean
Language                                 : Korean
Default                                  : No
Forced                                   : No

Text #4
ID                                       : 6
Format                                   : UTF-8
Codec ID                                 : S_TEXT/UTF8
Codec ID/Info                            : UTF-8 Plain Text
Duration                                 : 1 h 35 min
Bit rate                                 : 46 b/s
Count of elements                        : 1016
Stream size                              : 32.4 KiB (0%)
Title                                    : French
Language                                 : French
Default                                  : No
Forced                                   : No

Text #5
ID                                       : 7
Format                                   : UTF-8
Codec ID                                 : S_TEXT/UTF8
Codec ID/Info                            : UTF-8 Plain Text
Duration                                 : 1 h 35 min
Bit rate                                 : 46 b/s
Count of elements                        : 1036
Stream size                              : 32.4 KiB (0%)
Title                                    : German
Language                                 : German
Default                                  : No
Forced                                   : No

Text #6
ID                                       : 8
Format                                   : UTF-8
Codec ID                                 : S_TEXT/UTF8
Codec ID/Info                            : UTF-8 Plain Text
Duration                                 : 1 h 31 min
Bit rate                                 : 40 b/s
Count of elements                        : 1003
Stream size                              : 26.8 KiB (0%)
Title                                    : Italian
Language                                 : Italian
Default                                  : No
Forced                                   : No

Text #7
ID                                       : 9
Format                                   : UTF-8
Codec ID                                 : S_TEXT/UTF8
Codec ID/Info                            : UTF-8 Plain Text
Duration                                 : 1 h 33 min
Bit rate                                 : 39 b/s
Count of elements                        : 996
Stream size                              : 27.3 KiB (0%)
Title                                    : Portuguese
Language                                 : Portuguese
Default                                  : No
Forced                                   : No

Text #8
ID                                       : 10
Format                                   : UTF-8
Codec ID                                 : S_TEXT/UTF8
Codec ID/Info                            : UTF-8 Plain Text
Duration                                 : 1 h 35 min
Bit rate                                 : 39 b/s
Count of elements                        : 1025
Stream size                              : 27.8 KiB (0%)
Title                                    : Spanish
Language                                 : Spanish
Default                                  : No
Forced                                   : No

Text #9
ID                                       : 11
Format                                   : UTF-8
Codec ID                                 : S_TEXT/UTF8
Codec ID/Info                            : UTF-8 Plain Text
Duration                                 : 1 h 33 min
Bit rate                                 : 37 b/s
Count of elements                        : 989
Stream size                              : 26.0 KiB (0%)
Title                                    : Turkish
Language                                 : Turkish
Default                                  : No
Forced                                   : No

Menu
00:00:00.000                             : en:00:00:00.000
00:05:17.067                             : en:00:05:17.067
00:13:50.830                             : en:00:13:50.830
00:21:05.222                             : en:00:21:05.222
00:28:17.029                             : en:00:28:17.029
00:34:32.445                             : en:00:34:32.445
00:38:31.935                             : en:00:38:31.935
00:43:57.426                             : en:00:43:57.426
00:47:18.753                             : en:00:47:18.753
00:54:51.788                             : en:00:54:51.788
01:00:27.749                             : en:01:00:27.749
01:07:07.398                             : en:01:07:07.398
01:14:40.768                             : en:01:14:40.768
01:19:40.275                             : en:01:19:40.275
01:25:34.212                             : en:01:25:34.212
01:31:41.037                             : en:01:31:41.037

a27d799797aaf37aa6795ec80f955eeb.jpg





                                                                                                                                                                                                        
                                                                                                                                                                                                                                                                                                                                                                                                                                                                                                                                                                                                                                                                                                                                                                                                                                                        
79785e4a877bb63dbbf2c29de503875c.torrent (25.9 KB, 下载次数: 0)

回复

使用道具 举报

小黑屋|西西论坛

本网站所有资源来自网络,如无意中侵犯了您的权益,请发邮件至 [email protected],立即清除相关链接

GMT+8, 2022-6-27 04:52 , Processed in 0.129881 second(s), 17 queries .

Powered by Discuz! X3.2

© 2001-2013 Comsenz Inc.

快速回复 返回顶部 返回列表