西西论坛

 找回密码
 立即注册
搜索

梅芙 Maeve.1981.720p.BluRay.x264-BiPOLAR 8.62GB

[复制链接]
admin 发表于 2021-12-20 12:50:03 | 显示全部楼层 |阅读模式
梅芙 Maeve.1981.720p.BluRay.x264-BiPOLAR 8.62GB                                                                                                                                                                                                                                                                                                                                                                                                                                                                                                                                        -->
帖子完整标题:梅芙 Maeve.1981.720p.BluRay.x264-BiPOLAR 8.62GB



3af9b0dc116cb671ac6680d069f5aed3.jpg



◎译  名 梅芙
◎片  名 Maeve
◎年  代 1981
◎产  地 英国/爱尔兰/澳大利亚
◎类  别 剧情
◎上映日期 1983-06-16
◎豆瓣评分 /10 from 0 users
◎豆瓣链接 
◎片  长 110分钟
◎导  演 Pat Murphy Pat Murphy
◎编  剧 Pat Murphy Pat Murphy
◎主  演 玛丽·杰克逊 Mary Jackson
       布里德·布伦南 Brid Brennan

◎标  签 爱尔兰 | IRA | 1980s | 剧情 | PatMurphy | P-VeniceD非竞赛展映

◎简  介

  暂无相关剧情介绍
Video
ID                                       : 1
Format                                   : AVC
Format/Info                              : Advanced Video Codec
Format profile                           :
Format settings                          : CABAC / 12 Ref Frames
Format settings, CABAC                   : Yes
Format settings, Reference frames        : 12 frames
Codec ID                                 : V_MPEG4/ISO/AVC
Duration                                 : 1 h 55 min
Bit rate                                 : 10.1 Mb/s
Width                                    : 948 pixels
Height                                   : 720 pixels
Display aspect ratio                     : 4:3
Frame rate mode                          : Constant
Frame rate                               : 23.976 (24000/1001/189150) FPS
Color space                              : YUV
Chroma subsampling                       : 4:2:0
Bit depth                                : 8 bits
Scan type                                : Progressive
Bits/(Pixel*Frame)                       : 0.618
Stream size                              : 8.12 GiB (94%)
Writing library                          : x264 core 164 r3075 66a5bc1
Encoding settings                        : cabac=1 / ref=12 / deblock=1:-3:-3 / analyse=0x3:0x133 / me=umh / subme=10 / psy=1 / psy_rd=1.00:0.15 / mixed_ref=1 / me_range=24 / chroma_me=1 / trellis=2 / 8x8dct=1 / cqm=0 / deadzone=21,11 / fast_pskip=1 / chroma_qp_offset=-3 / threads=18 / lookahead_threads=3 / sliced_threads=0 / nr=0 / decimate=1 / interlaced=0 / bluray_compat=0 / constrained_intra=0 / bframes=8 / b_pyramid=2 / b_adapt=2 / b_bias=0 / direct=3 / weightb=1 / open_gop=0 / weightp=2 / keyint=250 / keyint_min=23 / scenecut=40 / intra_refresh=0 / rc_lookahead=60 / rc=crf / mbtree=1 / crf=18.6 / qcomp=0.60 / qpmin=0 / qpmax=69 / qpstep=4 / ip_ratio=1.40 / aq=3:0.50
Language                                 : English
Default                                  : Yes
Forced                                   : No
Color range                              : Limited
Matrix coefficients                      : BT.709

Audio
ID                                       : 2
Format                                   : FLAC
Format/Info                              : Free Lossless Audio Codec
Codec ID                                 : A_FLAC
Duration                                 : 1 h 55 min
Bit rate mode                            : Variable
Bit rate                                 : 606 kb/s
Channel(s)                               : 1 channel
Channel layout                           : C
Sampling rate                            : 48.0 kHz
Frame rate                               : 11.719 FPS (4096 SPF)
Bit depth                                : 24 bits
Compression mode                         : Lossless
Stream size                              : 499 MiB (6%)
Writing library                          : libFLAC 1.2.1 (UTC 2007-09-17)
Language                                 : English
Default                                  : Yes
Forced                                   : No

Text #1
ID                                       : 3
Format                                   : UTF-8
Codec ID                                 : S_TEXT/UTF8
Codec ID/Info                            : UTF-8 Plain Text
Duration                                 : 1 h 51 min
Bit rate                                 : 54 b/s
Count of elements                        : 1230
Stream size                              : 45.0 KiB (0%)
Title                                    : English
Language                                 : English
Default                                  : No
Forced                                   : No

Text #2
ID                                       : 4
Format                                   : UTF-8
Codec ID                                 : S_TEXT/UTF8
Codec ID/Info                            : UTF-8 Plain Text
Duration                                 : 1 h 52 min
Bit rate                                 : 57 b/s
Count of elements                        : 1305
Stream size                              : 47.1 KiB (0%)
Title                                    : English SDH
Language                                 : English
Default                                  : No
Forced                                   : No

Text #3
ID                                       : 5
Format                                   : PGS
Muxing mode                              : zlib
Codec ID                                 : S_HDMV/PGS
Codec ID/Info                            : Picture based subtitle format used on BDs/HD-DVDs
Duration                                 : 1 h 52 min
Bit rate                                 : 9 037 b/s
Count of elements                        : 2610
Stream size                              : 7.25 MiB (0%)
Title                                    : English SDH
Language                                 : English
Default                                  : No
Forced                                   : No

Text #4
ID                                       : 6
Format                                   : UTF-8
Codec ID                                 : S_TEXT/UTF8
Codec ID/Info                            : UTF-8 Plain Text
Duration                                 : 1 h 51 min
Bit rate                                 : 59 b/s
Count of elements                        : 1343
Stream size                              : 49.2 KiB (0%)
Title                                    : German
Language                                 : German
Default                                  : No
Forced                                   : No

Text #5
ID                                       : 7
Format                                   : UTF-8
Codec ID                                 : S_TEXT/UTF8
Codec ID/Info                            : UTF-8 Plain Text
Duration                                 : 1 h 52 min
Bit rate                                 : 51 b/s
Count of elements                        : 1206
Stream size                              : 42.8 KiB (0%)
Title                                    : Turkish
Language                                 : Turkish
Default                                  : No
Forced                                   : No

Menu
00:00:00.000                             : en:00:00:00.000
00:09:56.554                             : en:00:09:56.554
00:18:38.993                             : en:00:18:38.993
00:27:40.367                             : en:00:27:40.367
00:35:36.676                             : en:00:35:36.676
00:42:44.312                             : en:00:42:44.312
00:51:49.982                             : en:00:51:49.982
01:03:43.695                             : en:01:03:43.695
01:17:24.431                             : en:01:17:24.431
01:25:43.263                             : en:01:25:43.263
01:37:05.403                             : en:01:37:05.403
01:45:25.861                             : en:01:45:25.861

26b4e5687c4c2cba4764481da6b5bb5e.jpg





                                                                                                                                                                                                        
                                                                                                                                                                                                                                                                                                                                                                                                                                                                                                                                                                                                                                                                                                                                                                                                                                                        
e24ec56a02cd297ffcbd200b7b0193e7.torrent (22.26 KB, 下载次数: 0)

回复

使用道具 举报

小黑屋|西西论坛

本网站所有资源来自网络,如无意中侵犯了您的权益,请发邮件至 [email protected],立即清除相关链接

GMT+8, 2022-6-27 04:43 , Processed in 0.100323 second(s), 17 queries .

Powered by Discuz! X3.2

© 2001-2013 Comsenz Inc.

快速回复 返回顶部 返回列表