西西论坛

 找回密码
 立即注册
搜索

求救信号 Mayday.2021.720p.BluRay.x264.DTS-MT 6.41GB

[复制链接]
admin 发表于 2021-12-20 12:49:59 | 显示全部楼层 |阅读模式
求救信号 Mayday.2021.720p.BluRay.x264.DTS-MT 6.41GB                                                                                                                                                                                                                                                                                                                                                                                                                                                                                                                                        -->
帖子完整标题:求救信号 Mayday.2021.720p.BluRay.x264.DTS-MT 6.41GB



9ee19502d0e4d380ce8b6689200e2898.jpg



◎译  名 求救信号
◎片  名 Mayday
◎年  代 2021
◎产  地 美国
◎类  别 剧情 / 奇幻
◎语  言 英语
◎上映日期 2021-01-31(圣丹斯电影节) / 2021-10-01(美国)
◎豆瓣评分 6.5/10 from 79 users
◎豆瓣链接 
◎导  演 凯伦·西诺雷 Karen Cinorre
◎编  剧 凯伦·西诺雷 Karen Cinorre
◎主  演 朱丽叶特·刘易斯 Juliette Lewis
       格蕾丝·范帕滕 Grace Van Patten
       米娅·高斯 Mia Goth
       斯蒂芬妮·索科琳斯基 Stéphanie Sokolinski
       Havana Rose Liu Havana Rose Liu

◎标  签 奇幻 | 剧情 | 2021 | 文艺 | 女性 | 美国 | 女权 | 鹿特丹

◎简  介

  朱丽叶特·刘易斯、格蕾丝·范·帕滕、米娅·高斯将出演以女性为主导的奇幻动作片[求救信号](Mayday,暂译)。本片是导演兼编剧Karen Cinorre的处女作,目前正在拍摄中。故事讲述了一个名叫安娜(范·帕滕饰)的年轻女子被送到了一个梦幻而危险的地方,在那里她加入了一群女兵,在崎岖的海岸上进行着一场永无休止的战争。虽然她在这个令人振奋的世界中找到了力量,但她意识到她并不是他们希望她成为的杀手,所以她必须使用她的新生力量来试图战胜她的生活。

◎获奖情况

  第37届圣丹斯电影节 ?(2021)
  评审团大奖剧情片(提名) 凯伦·西诺雷
  
  第50届鹿特丹国际电影节 ?(2021)
  老虎奖(提名) 凯伦·西诺雷
Video
ID                                       : 1
Format                                   : AVC
Format/Info                              : Advanced Video Codec
Format profile                           :
Format settings                          : CABAC / 12 Ref Frames
Format settings, CABAC                   : Yes
Format settings, Reference frames        : 12 frames
Codec ID                                 : V_MPEG4/ISO/AVC
Duration                                 : 1 h 39 min
Bit rate                                 : 7 700 kb/s
Width                                    : 1 280 pixels
Height                                   : 536 pixels
Display aspect ratio                     : 2.40:1
Frame rate mode                          : Constant
Frame rate                               : 23.976 (24000/1001/189150) FPS
Color space                              : YUV
Chroma subsampling                       : 4:2:0
Bit depth                                : 8 bits
Scan type                                : Progressive
Bits/(Pixel*Frame)                       : 0.468
Stream size                              : 5.36 GiB (84%)
Writing library                          : x264 core 157 r2938 2b00a84  Mod
Encoding settings                        : cabac=1 / ref=12 / deblock=1:-3:-3 / analyse=0x3:0x133 / me=umh / subme=10 / psy=1 / psy_rd=1.05:0.00 / mixed_ref=1 / me_range=32 / chroma_me=1 / trellis=2 / 8x8dct=1 / cqm=0 / deadzone=21,11 / fast_pskip=0 / chroma_qp_offset=-2 / threads=12 / lookahead_threads=2 / sliced_threads=0 / nr=0 / decimate=0 / interlaced=0 / bluray_compat=0 / constrained_intra=0 / bframes=8 / b_pyramid=2 / b_adapt=2 / b_bias=0 / direct=3 / weightb=1 / open_gop=0 / weightp=2 / keyint=250 / keyint_min=24 / scenecut=40 / intra_refresh=0 / rc_lookahead=250 / rc=crf / mbtree=0 / crf=16.8 / qcomp=0.60 / qpmin=0 / qpmax=69 / qpstep=4 / vbv_maxrate=62500 / vbv_bufsize=78125 / crf_max=0.0 / nal_hrd=none / filler=0 / ip_ratio=1.30 / pb_ratio=1.20 / aq=3:0.80
Language                                 : English
Default                                  : Yes
Forced                                   : No
Color range                              : Limited
Color primaries                          : BT.709
Matrix coefficients                      : BT.709

Audio
ID                                       : 2
Format                                   : DTS
Format/Info                              : Digital Theater Systems
Codec ID                                 : A_DTS
Duration                                 : 1 h 39 min
Bit rate mode                            : Constant
Bit rate                                 : 1 509 kb/s
Channel(s)                               : 6 channels
Channel layout                           : C L R Ls Rs LFE
Sampling rate                            : 48.0 kHz
Frame rate                               : 93.750 FPS (512 SPF)
Bit depth                                : 16 bits
Compression mode                         : Lossy
Stream size                              : 1.05 GiB (16%)
Language                                 : English
Default                                  : Yes
Forced                                   : No

Text #1
ID                                       : 3
Format                                   : UTF-8
Codec ID                                 : S_TEXT/UTF8
Codec ID/Info                            : UTF-8 Plain Text
Duration                                 : 1 h 38 min
Bit rate                                 : 33 b/s
Count of elements                        : 932
Stream size                              : 24.4 KiB (0%)
Language                                 : English
Default                                  : Yes
Forced                                   : No

Text #2
ID                                       : 4
Format                                   : UTF-8
Codec ID                                 : S_TEXT/UTF8
Codec ID/Info                            : UTF-8 Plain Text
Duration                                 : 1 h 39 min
Bit rate                                 : 41 b/s
Count of elements                        : 1077
Stream size                              : 30.3 KiB (0%)
Title                                    : SDH
Language                                 : English
Default                                  : No
Forced                                   : No

Menu
00:00:00.000                             : en:Chapter 01
00:08:35.515                             : en:Chapter 02
00:14:36.876                             : en:Chapter 03
00:20:59.258                             : en:Chapter 04
00:28:39.718                             : en:Chapter 05
00:38:26.304                             : en:Chapter 06
00:45:46.744                             : en:Chapter 07
00:51:46.103                             : en:Chapter 08
00:58:56.533                             : en:Chapter 09
01:06:26.983                             : en:Chapter 10
01:14:19.455                             : en:Chapter 11
01:23:18.994                             : en:Chapter 12
01:33:35.610                             : en:Chapter 13

77bbc75a0a64d479302d716ca6713fc7.png

[/url]57f4653ae1bbeb1908d658da59d27654.png

[/url]475243403bda278c16d044fed86acadd.png

[/url]



                                                                                                                                                                                                        
                                                                                                                                                                                                                                                                                                                                                                                                                                                                                                                                                                                                                                                                                                                                                                                                                                                        
a5e2cca4d035345b517817928774e29f.torrent (16.62 KB, 下载次数: 0)

回复

使用道具 举报

小黑屋|西西论坛

本网站所有资源来自网络,如无意中侵犯了您的权益,请发邮件至 [email protected],立即清除相关链接

GMT+8, 2022-1-28 08:24 , Processed in 0.149634 second(s), 17 queries .

Powered by Discuz! X3.2

© 2001-2013 Comsenz Inc.

快速回复 返回顶部 返回列表