西西论坛

 找回密码
 立即注册
搜索

情人与枪/杀戮边缘 Love.and.a.45.1994.720p.BluRay.x264-USURY 4.23GB

[复制链接]
admin 发表于 2021-12-19 10:48:47 | 显示全部楼层 |阅读模式
情人与枪/杀戮边缘 Love.and.a.45.1994.720p.BluRay.x264-USURY 4.23GB                                                                                                                                                                                                                                                                                                                                                                                                                                                                                                                                        -->
帖子完整标题:情人与枪/杀戮边缘 Love.and.a.45.1994.720p.BluRay.x264-USURY 4.23GB





◎译  名 情人与枪/杀戮边缘
◎片  名 Love and a .45
◎年  代 1994
◎产  地 美国
◎类  别 喜剧 / 惊悚 / 犯罪
◎语  言 英语
◎上映日期 1994-09-10
◎豆瓣评分 /10 from 0 users
◎豆瓣链接 
◎片  长 101 分钟
◎导  演 C.M. Talkington C.M. Talkington
◎编  剧 C.M. Talkington C.M. Talkington
◎主  演 达林·斯科特 Darin Scott
       安·韦奇沃斯 Ann Wedgeworth
       威利·维金斯 Wiley Wiggins
       Scott Roland Scott Roland
       布拉德·利兰 Brad Leland
       迈克尔·鲍文 Michael Bowen
       夏洛特·罗丝 Charlotte Ross
       吉尔·贝罗斯 Gil Bellows
       C.M. Talkington C.M. Talkington
       罗利·科奇瑞恩 Rory Cochrane
       彼得·方达 Peter Fonda
       杰克·南斯 Jack Nance
       杰弗瑞·考姆斯 Jeffrey Combs
       蕾妮·齐薇格 Renée Zellweger
       杰斯·亚历山大 Jace Alexander

◎标  签 美国 | 犯罪 | 公路 | 爱情 | RenéeZellweger | 独立电影 | 美国电影 | 惊悚

◎简  介

  《爱和45式手枪》Love and A.45:美1994年惊悚片,年轻的云妮兹维格(《芝加哥》《BJ单身日记》)凭此片荣获独立精神奖最佳表演处女作,实事上在此之前云妮已经出演过《年少轻狂》和《德州链锯杀人狂3》的小角色,都没引起注意,直到主演了本片后便得到了卡梅隆克洛的青睐,主演了《征服情海》从而成为明星。
Video
ID                                       : 1
Format                                   : AVC
Format/Info                              : Advanced Video Codec
Format profile                           :
Format settings                          : CABAC / 9 Ref Frames
Format settings, CABAC                   : Yes
Format settings, Reference frames        : 9 frames
Codec ID                                 : V_MPEG4/ISO/AVC
Duration                                 : 1 h 42 min
Bit rate                                 : 5 167 kb/s
Width                                    : 1 280 pixels
Height                                   : 720 pixels
Display aspect ratio                     : 16:9
Frame rate mode                          : Constant
Frame rate                               : 23.976 (24000/1001/189150) FPS
Color space                              : YUV
Chroma subsampling                       : 4:2:0
Bit depth                                : 8 bits
Scan type                                : Progressive
Bits/(Pixel*Frame)                       : 0.234
Stream size                              : 3.69 GiB (87%)
Writing library                          : x264 core 164 r3075 66a5bc1
Encoding settings                        : cabac=1 / ref=9 / deblock=1:-3:-3 / analyse=0x3:0x133 / me=umh / subme=10 / psy=1 / psy_rd=1.00:0.15 / mixed_ref=1 / me_range=24 / chroma_me=1 / trellis=2 / 8x8dct=1 / cqm=0 / deadzone=21,11 / fast_pskip=1 / chroma_qp_offset=-3 / threads=18 / lookahead_threads=3 / sliced_threads=0 / nr=0 / decimate=1 / interlaced=0 / bluray_compat=0 / constrained_intra=0 / bframes=8 / b_pyramid=2 / b_adapt=2 / b_bias=0 / direct=3 / weightb=1 / open_gop=0 / weightp=2 / keyint=250 / keyint_min=23 / scenecut=40 / intra_refresh=0 / rc_lookahead=60 / rc=crf / mbtree=1 / crf=19.0 / qcomp=0.60 / qpmin=0 / qpmax=69 / qpstep=4 / ip_ratio=1.40 / aq=3:0.50
Language                                 : English
Default                                  : Yes
Forced                                   : No
Color range                              : Limited
Matrix coefficients                      : BT.709

Audio #1
ID                                       : 2
Format                                   : FLAC
Format/Info                              : Free Lossless Audio Codec
Codec ID                                 : A_FLAC
Duration                                 : 1 h 42 min
Bit rate mode                            : Variable
Bit rate                                 : 619 kb/s
Channel(s)                               : 2 channels
Channel layout                           : L R
Sampling rate                            : 48.0 kHz
Frame rate                               : 11.719 FPS (4096 SPF)
Bit depth                                : 16 bits
Compression mode                         : Lossless
Stream size                              : 452 MiB (10%)
Writing library                          : libFLAC 1.2.1 (UTC 2007-09-17)
Language                                 : English
Default                                  : Yes
Forced                                   : No

Audio #2
ID                                       : 3
Format                                   : AAC LC
Format/Info                              : Advanced Audio Codec Low Complexity
Codec ID                                 : A_AAC-2
Duration                                 : 1 h 42 min
Bit rate                                 : 112 kb/s
Channel(s)                               : 2 channels
Channel layout                           : L R
Sampling rate                            : 48.0 kHz
Frame rate                               : 46.875 FPS (1024 SPF)
Compression mode                         : Lossy
Delay relative to video                  : 9 ms
Stream size                              : 82.1 MiB (2%)
Title                                    : English Commentary by C.M Talkington, Gil Bellows and Darin Scott
Language                                 : English
Default                                  : No
Forced                                   : No

Text #1
ID                                       : 4
Format                                   : UTF-8
Codec ID                                 : S_TEXT/UTF8
Codec ID/Info                            : UTF-8 Plain Text
Duration                                 : 1 h 35 min
Bit rate                                 : 65 b/s
Count of elements                        : 1403
Stream size                              : 45.9 KiB (0%)
Title                                    : English
Language                                 : English
Default                                  : No
Forced                                   : No

Text #2
ID                                       : 5
Format                                   : PGS
Muxing mode                              : zlib
Codec ID                                 : S_HDMV/PGS
Codec ID/Info                            : Picture based subtitle format used on BDs/HD-DVDs
Duration                                 : 1 h 35 min
Bit rate                                 : 16.1 kb/s
Count of elements                        : 1836
Stream size                              : 11.0 MiB (0%)
Title                                    : English
Language                                 : English
Default                                  : No
Forced                                   : No

Text #3
ID                                       : 6
Format                                   : UTF-8
Codec ID                                 : S_TEXT/UTF8
Codec ID/Info                            : UTF-8 Plain Text
Duration                                 : 1 h 35 min
Bit rate                                 : 73 b/s
Count of elements                        : 970
Stream size                              : 51.3 KiB (0%)
Title                                    : German
Language                                 : German
Default                                  : No
Forced                                   : No

Text #4
ID                                       : 7
Format                                   : UTF-8
Codec ID                                 : S_TEXT/UTF8
Codec ID/Info                            : UTF-8 Plain Text
Duration                                 : 1 h 36 min
Bit rate                                 : 74 b/s
Count of elements                        : 1021
Stream size                              : 52.6 KiB (0%)
Title                                    : German SDH
Language                                 : German
Default                                  : No
Forced                                   : No

Text #5
ID                                       : 8
Format                                   : PGS
Muxing mode                              : zlib
Codec ID                                 : S_HDMV/PGS
Codec ID/Info                            : Picture based subtitle format used on BDs/HD-DVDs
Duration                                 : 1 h 36 min
Bit rate                                 : 17.3 kb/s
Count of elements                        : 1465
Stream size                              : 11.9 MiB (0%)
Title                                    : German SDH
Language                                 : German
Default                                  : No
Forced                                   : No

Menu
00:00:00.000                             : en:00:00:00.000
00:11:57.717                             : en:00:11:57.717
00:16:39.999                             : en:00:16:39.999
00:26:34.593                             : en:00:26:34.593
00:33:06.985                             : en:00:33:06.985
00:41:58.516                             : en:00:41:58.516
00:50:25.022                             : en:00:50:25.022
00:58:01.478                             : en:00:58:01.478
01:08:00.076                             : en:01:08:00.076
01:15:21.517                             : en:01:15:21.517
01:25:38.133                             : en:01:25:38.133
01:35:27.722                             : en:01:35:27.722

7b01ec3449b4d4decf02e1bd22359115.jpg





                                                                                                                                                                                                        
                                                                                                                                                                                                                                                                                                                                                                                                                                                                                                                                                                                                                                                                                                                                                                                                                                                        
cf23e95a192236cf354cf5f98dbd904b.torrent (21.88 KB, 下载次数: 0)

回复

使用道具 举报

小黑屋|西西论坛

本网站所有资源来自网络,如无意中侵犯了您的权益,请发邮件至 [email protected],立即清除相关链接

GMT+8, 2022-6-27 04:19 , Processed in 0.110339 second(s), 17 queries .

Powered by Discuz! X3.2

© 2001-2013 Comsenz Inc.

快速回复 返回顶部 返回列表