西西论坛

 找回密码
 立即注册
搜索

行尸走肉 Flesh.for.Frankenstein.1973.REMASTERED.PROPER.720p.BluRay.x264-PiGNUS 6 ...

[复制链接]
admin 发表于 2021-12-19 10:48:43 | 显示全部楼层 |阅读模式
行尸走肉 Flesh.for.Frankenstein.1973.REMASTERED.PROPER.720p.BluRay.x264-PiGNUS 6.28G                                                                                                                                                                                                                                                                                                                                                                                                                                                                                                                                        -->
帖子完整标题:行尸走肉 Flesh.for.Frankenstein.1973.REMASTERED.PROPER.720p.BluRay.x264-PiGNUS 6.28GB





◎译  名 行尸走肉/Andy Warhol's Frankenstein/科学怪人的肉体
◎片  名 Flesh for Frankenstein
◎年  代 1973
◎产  地 美国,意大利,法国
◎类  别 剧情 / 科幻 / 恐怖
◎语  言 英语,法语
◎上映日期 1973-11-30
◎豆瓣评分 6.8/10 from 1181 users
◎豆瓣链接 
◎片  长 95 分钟
◎导  演 保罗·莫里西 Paul Morrissey / 安东尼奥·马格赫特 Antonio Margheriti
◎编  剧 托尼诺·格拉 Tonino Guerra / 保罗·莫里西 Paul Morrissey / 玛丽·雪莱 Mary Shelley
◎主  演 乔·达里桑德罗 Joe Dallesandro
       莫妮克·范·盖德林 Monique van Vooren
       乌多·基尔 Udo Kier
       Arno Juerging Arno Juerging
       德罗热达·铎洛斯 Rosita Torosh
       卡拉·曼奇尼 Carla Mancini
       克里斯蒂娜·加约尼 Cristina Gaioni
       达莉拉·迪·拉扎罗 Dalila Di Lazzaro
       妮可莱塔·埃尔米 Nicoletta Elmi
       Liù Bosisio Liù Bosisio

◎标  签 Cult | 意大利 | 恐怖 | 美国 |  | 法国 | 1970s | 血腥

◎简  介

  本片由Paul Morrissey和意大利CULT大师Antonio Margheriti(又名Anthony M. Dawson)联合执导,意大利制片巨头Carlo Ponti促成了两位大师的合作,Antonio Margheriti还兼任特效工作,当然还有监制Andy Warhol,已经无法弄清是谁赋予这部伟大经典CULT电影极品惊世骇俗的气质。Frankenstein是被反复制作的CULT形象,而这次更是变本加厉。恋尸癖男爵、疯狂的纳粹倾向科学家Frankenstein博士要打造完美无缺的极品男女,他收集了各种人体器官来拼装新人体,而 Frankenstein博士对于这些血块肆意无所谓的态度使得影片有一种Gore Comedy的风格,喜剧元素在这样一部赤裸血肉的作品里时常凸现,为了赋予极品男人超级淫荡的内心灵魂以完成极品男女的终极交合,Frankenstein博士需要物色一个人选然后砍下他的头颅。他误认为跟随强壮农夫一起去嫖娼的却一心想成为修士的同伴更淫荡更善于男女之事,于是趁两人酒醉时砍下那位同伴的头颅。当再造活人之后,他却发现极品男人居然内向胆怯,根本无法完成交合。影片中几乎每个人都有一颗邪恶的心,除了Frankenstein博士之外,跟他有姐弟关系并近亲结婚的妻子是个虚伪,淫荡的女子,她表面指责强壮农夫的野合行为,私下却要他满足自己的欲求,她还提出要“使用”新极品男人,并出卖强壮农夫,最后在与力大无比的人造男人交合时因发错指令而被死死抱紧,断筋碎骨而丧命。博士的助手受他影响,会用手撕开并插入女人胸腔来满足自己的邪念,最后却使得人造女死亡,自己也被盛怒的博士杀死。最令人吃惊的是博士的一对孩子本想救出农夫,却因看见橱柜里的内脏血块而把他吊得更高。Frankenstein博士由还出演过《Blood for Dracula》中Dracula 伯爵的Udo Kier饰演,绝对经典!
Video
ID                                       : 1
Format                                   : AVC
Format/Info                              : Advanced Video Codec
Format profile                           :
Format settings                          : CABAC / 8 Ref Frames
Format settings, CABAC                   : Yes
Format settings, Reference frames        : 8 frames
Codec ID                                 : V_MPEG4/ISO/AVC
Duration                                 : 1 h 35 min
Bit rate                                 : 8 612 kb/s
Width                                    : 1 280 pixels
Height                                   : 544 pixels
Display aspect ratio                     : 2.35:1
Frame rate mode                          : Constant
Frame rate                               : 23.976 (24000/1001/189150) FPS
Color space                              : YUV
Chroma subsampling                       : 4:2:0
Bit depth                                : 8 bits
Scan type                                : Progressive
Bits/(Pixel*Frame)                       : 0.516
Stream size                              : 5.73 GiB (91%)
Writing library                          : x264 core 164 r3079 d9a19f0
Encoding settings                        : cabac=1 / ref=8 / deblock=1:-3:-3 / analyse=0x3:0x133 / me=umh / subme=9 / psy=1 / psy_rd=1.00:0.00 / mixed_ref=1 / me_range=16 / chroma_me=1 / trellis=2 / 8x8dct=1 / cqm=0 / deadzone=21,11 / fast_pskip=1 / chroma_qp_offset=-2 / threads=17 / lookahead_threads=1 / sliced_threads=0 / nr=0 / decimate=1 / interlaced=0 / bluray_compat=0 / constrained_intra=0 / bframes=3 / b_pyramid=2 / b_adapt=2 / b_bias=0 / direct=3 / weightb=1 / open_gop=0 / weightp=2 / keyint=250 / keyint_min=23 / scenecut=40 / intra_refresh=0 / rc_lookahead=60 / rc=crf / mbtree=1 / crf=19.5 / qcomp=0.60 / qpmin=0 / qpmax=69 / qpstep=4 / ip_ratio=1.40 / aq=1:1.00
Default                                  : Yes
Forced                                   : No

Audio #1
ID                                       : 2
Format                                   : FLAC
Format/Info                              : Free Lossless Audio Codec
Codec ID                                 : A_FLAC
Duration                                 : 1 h 35 min
Bit rate mode                            : Variable
Bit rate                                 : 742 kb/s
Channel(s)                               : 2 channels
Channel layout                           : L R
Sampling rate                            : 48.0 kHz
Frame rate                               : 11.719 FPS (4096 SPF)
Bit depth                                : 24 bits
Compression mode                         : Lossless
Stream size                              : 505 MiB (8%)
Writing library                          : libFLAC 1.2.1 (UTC 2007-09-17)
Language                                 : English
Default                                  : Yes
Forced                                   : No

Audio #2
ID                                       : 3
Format                                   : AAC LC
Format/Info                              : Advanced Audio Codec Low Complexity
Codec ID                                 : A_AAC-2
Duration                                 : 1 h 35 min
Bit rate                                 : 86.8 kb/s
Channel(s)                               : 2 channels
Channel layout                           : L R
Sampling rate                            : 48.0 kHz
Frame rate                               : 46.875 FPS (1024 SPF)
Compression mode                         : Lossy
Delay relative to video                  : 9 ms
Stream size                              : 59.1 MiB (1%)
Title                                    : Commentary
Language                                 : English
Default                                  : Yes
Forced                                   : No

Text
ID                                       : 4
Format                                   : PGS
Muxing mode                              : zlib
Codec ID                                 : S_HDMV/PGS
Codec ID/Info                            : Picture based subtitle format used on BDs/HD-DVDs
Duration                                 : 1 h 34 min
Bit rate                                 : 26.1 kb/s
Count of elements                        : 2655
Stream size                              : 17.6 MiB (0%)
Title                                    : English SDH
Language                                 : English
Default                                  : No
Forced                                   : No

Menu
00:00:00.000                             : en:Chapter 01
00:20:48.247                             : en:Chapter 02
00:41:34.492                             : en:Chapter 03
01:01:22.679                             : en:Chapter 04
01:22:53.469                             : en:Chapter 05
01:35:10.914                             : en:Chapter 06





                                                                                                                                                                                                        
                                                                                                                                                                                                                                                                                                                                                                                                                                                                                                                                                                                                                                                                                                                                                                                                                                                        
3c66510f47a442a8fae8f0502d162a22.torrent (16.52 KB, 下载次数: 0)

回复

使用道具 举报

小黑屋|西西论坛

本网站所有资源来自网络,如无意中侵犯了您的权益,请发邮件至 [email protected],立即清除相关链接

GMT+8, 2022-1-28 08:12 , Processed in 0.106103 second(s), 17 queries .

Powered by Discuz! X3.2

© 2001-2013 Comsenz Inc.

快速回复 返回顶部 返回列表