西西论坛

 找回密码
 立即注册
搜索

魂断情天/作家之道 Some.Came.Running.1958.720p.BluRay.x264-USURY 4.48GB

[复制链接]
admin 发表于 2021-12-19 10:48:40 | 显示全部楼层 |阅读模式
魂断情天/作家之道 Some.Came.Running.1958.720p.BluRay.x264-USURY 4.48GB                                                                                                                                                                                                                                                                                                                                                                                                                                                                                                                                        -->
帖子完整标题:魂断情天/作家之道 Some.Came.Running.1958.720p.BluRay.x264-USURY 4.48GB





◎译  名 魂断情天/作家之道
◎片  名 Some Came Running
◎年  代 1958
◎产  地 美国
◎类  别 剧情 / 爱情
◎语  言 英语
◎上映日期 1958-12-18
◎豆瓣评分 7.5/10 from 256 users
◎豆瓣链接 
◎片  长 137 分钟
◎导  演 文森特·明奈利 Vincente Minnelli
◎编  剧 约翰·帕特里克 John Patrick / 亚瑟·谢尔曼 Arthur Sheekman / 詹姆斯·琼斯 James Jones
◎主  演 雪莉·麦克雷恩 Shirley MacLaine
       弗兰克·辛纳特拉 Frank Sinatra
       迪恩·马丁 Dean Martin
       詹姆斯·琼斯 James Jones

◎标  签 美国 | 爱情 | 1950s | Vincente_Minnelli | 美国电影 | 1958 | 文森特·明奈利 | VincenteMinnelli

◎简  介

  故事背景是二次世界大战后美国中西部小镇,一位作家回到伊利诺州的老家,在那里邂逅了在死亡边缘挣扎的赌徒,他俩到处游荡,试图使这个小镇起死回生,期间,他又碰到了一个放荡性感的女子爱上了他,反映他从渴望成名到觉醒的一段心路历程。全片文学气息浓厚,像是作家心理研究的个案多於一个戏剧故事,但导演文森特.明尼里 成功地营造了时代气氛,对於几个主角的复杂性格也做了深入而有趣的刻画,演员演得有神彩,在平凡事件中令人感受到人生的苦与乐。

◎获奖情况

  第31届奥斯卡金像奖 ?(1959)
  最佳女主角(提名) 雪莉·麦克雷恩
  最佳男配角(提名) 阿瑟·肯尼迪
  最佳女配角(提名) 玛莎·海尔
  最佳服装设计(提名) 沃尔特·普朗凯特
  最佳原创歌曲(提名) 吉米·范·休森?/?萨米·卡恩
  
  第16届金球奖 ?(1959)
  电影类剧情片最佳女主角(提名) 雪莉·麦克雷恩
Video
ID                                       : 1
Format                                   : AVC
Format/Info                              : Advanced Video Codec
Format profile                           :
Format settings                          : CABAC / 11 Ref Frames
Format settings, CABAC                   : Yes
Format settings, Reference frames        : 11 frames
Codec ID                                 : V_MPEG4/ISO/AVC
Duration                                 : 2 h 15 min
Bit rate                                 : 4 096 kb/s
Width                                    : 1 280 pixels
Height                                   : 546 pixels
Display aspect ratio                     : 2.35:1
Frame rate mode                          : Constant
Frame rate                               : 23.976 (24000/1001/189150) FPS
Color space                              : YUV
Chroma subsampling                       : 4:2:0
Bit depth                                : 8 bits
Scan type                                : Progressive
Bits/(Pixel*Frame)                       : 0.244
Stream size                              : 3.89 GiB (87%)
Writing library                          : x264 core 164 r3079 d9a19f0
Encoding settings                        : cabac=1 / ref=11 / deblock=1:-3:-3 / analyse=0x3:0x133 / me=umh / subme=10 / psy=1 / psy_rd=1.00:0.15 / mixed_ref=1 / me_range=24 / chroma_me=1 / trellis=2 / 8x8dct=1 / cqm=0 / deadzone=21,11 / fast_pskip=1 / chroma_qp_offset=-3 / threads=17 / lookahead_threads=2 / sliced_threads=0 / nr=0 / decimate=1 / interlaced=0 / bluray_compat=0 / constrained_intra=0 / bframes=8 / b_pyramid=2 / b_adapt=2 / b_bias=0 / direct=3 / weightb=1 / open_gop=0 / weightp=2 / keyint=250 / keyint_min=23 / scenecut=40 / intra_refresh=0 / rc_lookahead=60 / rc=crf / mbtree=1 / crf=17.0 / qcomp=0.60 / qpmin=0 / qpmax=69 / qpstep=4 / ip_ratio=1.40 / aq=3:0.50
Language                                 : English
Default                                  : Yes
Forced                                   : No

Audio
ID                                       : 2
Format                                   : FLAC
Format/Info                              : Free Lossless Audio Codec
Codec ID                                 : A_FLAC
Duration                                 : 2 h 15 min
Bit rate mode                            : Variable
Bit rate                                 : 595 kb/s
Channel(s)                               : 2 channels
Channel layout                           : L R
Sampling rate                            : 48.0 kHz
Frame rate                               : 11.719 FPS (4096 SPF)
Bit depth                                : 24 bits
Compression mode                         : Lossless
Stream size                              : 579 MiB (13%)
Writing library                          : libFLAC 1.2.1 (UTC 2007-09-17)
Language                                 : English
Default                                  : Yes
Forced                                   : No

Text #1
ID                                       : 3
Format                                   : UTF-8
Codec ID                                 : S_TEXT/UTF8
Codec ID/Info                            : UTF-8 Plain Text
Duration                                 : 2 h 13 min
Bit rate                                 : 78 b/s
Count of elements                        : 2324
Stream size                              : 77.0 KiB (0%)
Title                                    : English
Language                                 : English
Default                                  : No
Forced                                   : No

Text #2
ID                                       : 4
Format                                   : UTF-8
Codec ID                                 : S_TEXT/UTF8
Codec ID/Info                            : UTF-8 Plain Text
Duration                                 : 2 h 15 min
Bit rate                                 : 80 b/s
Count of elements                        : 2486
Stream size                              : 80.2 KiB (0%)
Title                                    : English SDH
Language                                 : English
Default                                  : No
Forced                                   : No

Text #3
ID                                       : 5
Format                                   : PGS
Muxing mode                              : zlib
Codec ID                                 : S_HDMV/PGS
Codec ID/Info                            : Picture based subtitle format used on BDs/HD-DVDs
Duration                                 : 2 h 15 min
Bit rate                                 : 20.6 kb/s
Count of elements                        : 4972
Stream size                              : 19.9 MiB (0%)
Title                                    : English SDH
Language                                 : English
Default                                  : No
Forced                                   : No

Menu
00:00:00.000                             : en:00:00:00.000
00:02:01.163                             : en:00:02:01.163
00:05:59.192                             : en:00:05:59.192
00:09:49.714                             : en:00:09:49.714
00:16:04.797                             : en:00:16:04.797
00:19:26.999                             : en:00:19:26.999
00:21:27.161                             : en:00:21:27.161
00:24:07.946                             : en:00:24:07.946
00:27:57.551                             : en:00:27:57.551
00:31:05.614                             : en:00:31:05.614
00:37:38.381                             : en:00:37:38.381
00:42:08.276                             : en:00:42:08.276
00:46:21.779                             : en:00:46:21.779
00:48:34.161                             : en:00:48:34.161
00:55:03.509                             : en:00:55:03.509
01:00:38.009                             : en:01:00:38.009
01:04:55.892                             : en:01:04:55.892
01:09:00.178                             : en:01:09:00.178
01:12:56.831                             : en:01:12:56.831
01:17:52.668                             : en:01:17:52.668
01:21:00.105                             : en:01:21:00.105
01:24:52.296                             : en:01:24:52.296
01:29:00.877                             : en:01:29:00.877
01:32:38.553                             : en:01:32:38.553
01:35:41.486                             : en:01:35:41.486
01:38:52.176                             : en:01:38:52.176
01:45:27.488                             : en:01:45:27.488
01:49:40.783                             : en:01:49:40.783
01:53:17.249                             : en:01:53:17.249
01:58:49.122                             : en:01:58:49.122
02:01:23.693                             : en:02:01:23.693
02:04:51.275                             : en:02:04:51.275
02:07:45.074                             : en:02:07:45.074
02:11:53.114                             : en:02:11:53.114
02:14:08.040                             : en:02:14:08.040
02:15:43.344                             : en:02:15:43.344

0dc2b59f71ad4647e8aa173ce853d1c2.jpg





                                                                                                                                                                                                        
                                                                                                                                                                                                                                                                                                                                                                                                                                                                                                                                                                                                                                                                                                                                                                                                                                                        
5672e024b5f56c1e052b12016a676f26.torrent (23.11 KB, 下载次数: 0)

回复

使用道具 举报

小黑屋|西西论坛

本网站所有资源来自网络,如无意中侵犯了您的权益,请发邮件至 [email protected],立即清除相关链接

GMT+8, 2022-1-20 04:11 , Processed in 0.115749 second(s), 17 queries .

Powered by Discuz! X3.2

© 2001-2013 Comsenz Inc.

快速回复 返回顶部 返回列表