西西论坛

 找回密码
 立即注册
搜索

杰出的邓迪先生 The.Very.Excellent.Mr.Dundee.2020.720p.BluRay.x264-GUACAMOLE 2.55 ...

[复制链接]
admin 发表于 2021-12-19 10:48:35 | 显示全部楼层 |阅读模式
杰出的邓迪先生 The.Very.Excellent.Mr.Dundee.2020.720p.BluRay.x264-GUACAMOLE 2.55GB                                                                                                                                                                                                                                                                                                                                                                                                                                                                                                                                        -->
帖子完整标题:杰出的邓迪先生 The.Very.Excellent.Mr.Dundee.2020.720p.BluRay.x264-GUACAMOLE 2.55GB



b90cd3403ab9cba1bdba839c2e0ebeb9.jpg



◎译  名 杰出的邓迪先生
◎片  名 The Very Excellent Mr Dundee
◎年  代 2020
◎产  地 美国,澳大利亚
◎类  别 喜剧
◎语  言 英语
◎上映日期 2020-07-17(澳大利亚)
◎豆瓣评分 /10 from 0 users
◎豆瓣链接 
◎片  长 88分钟
◎导  演 迪恩·墨菲 Dean Murphy
◎编  剧 迪恩·墨菲 Dean Murphy
◎主  演 保罗·霍根 Paul Hogan
       切维·切斯 Chevy Chase
       雅各布·艾洛蒂 Jacob Elordi
       奥莉维亚·纽顿-约翰 Olivia Newton-John
       约翰·克里斯 John Cleese
       韦恩·奈特 Wayne Knight
       雷金纳德·维尔约翰逊 Reginald VelJohnson
       凯瑞·阿姆斯特朗 Kerry Armstrong
       科斯塔斯·曼迪勒 Costas Mandylor
       内特·托伦斯 Nate Torrence
       瑞秋·卡帕尼 Rachael Carpani
       吉姆·杰弗里斯 Jim Jefferies
       肖恩·雅克博森 Shane Jacobson
       南希·奥黛尔 Nancy O'Dell
       罗伊·比令 Roy Billing
       Paul Fenech Paul Fenech
       克莱顿·雅各布森 Clayton Jacobson
       Betty Bobbit Betty Bobbit
       西蒙娜·安南 Simone Annan
        Rebecca Asha
       杰西卡·戈尔 Jessica Gower
       保罗·亨利 Paul Henri
        Jessica Miller
       罗斯科·坎贝尔 Rosco Campbell
       泽维尔·勾奥尔特 Xavier Gouault
        Clement Tang

◎标  签 2020 | 黑色幽默 | 美国 | 电影 | 搞笑 | 喜剧 | 人性 | Comedy

◎简  介

  澳大利亚男演员保罗·霍根([鳄鱼邓迪]系列)将出演新片[杰出的邓迪先生](The Very Excellent Mr Dundee,暂译)。迪恩·墨菲([查理和布茨])执导并担任制片。近年来鲜少在影视作品中亮相的保罗·霍根将在片中再度饰演著名的“邓迪先生”。影片下月在澳大利亚、洛杉矶、温哥华拍摄。

◎获奖情况

  第41届金酸莓奖 ?(2021)
  最差男配角(提名) 切维·切斯
Video
ID                                       : 1
Format                                   : AVC
Format/Info                              : Advanced Video Codec
Format profile                           :
Format settings                          : CABAC / 8 Ref Frames
Format settings, CABAC                   : Yes
Format settings, Reference frames        : 8 frames
Codec ID                                 : V_MPEG4/ISO/AVC
Duration                                 : 1 h 28 min
Bit rate                                 : 3 477 kb/s
Width                                    : 1 280 pixels
Height                                   : 538 pixels
Display aspect ratio                     : 2.40:1
Frame rate mode                          : Constant
Frame rate                               : 23.976 (24000/1001/189150) FPS
Color space                              : YUV
Chroma subsampling                       : 4:2:0
Bit depth                                : 8 bits
Scan type                                : Progressive
Bits/(Pixel*Frame)                       : 0.211
Stream size                              : 2.14 GiB (84%)
Writing library                          : x264 core 164 r3075 66a5bc1
Encoding settings                        : cabac=1 / ref=8 / deblock=1:-3:-3 / analyse=0x3:0x133 / me=umh / subme=9 / psy=1 / psy_rd=1.00:0.00 / mixed_ref=1 / me_range=16 / chroma_me=1 / trellis=2 / 8x8dct=1 / cqm=0 / deadzone=21,11 / fast_pskip=0 / chroma_qp_offset=-2 / threads=17 / lookahead_threads=1 / sliced_threads=0 / nr=0 / decimate=1 / interlaced=0 / bluray_compat=0 / constrained_intra=0 / bframes=3 / b_pyramid=2 / b_adapt=2 / b_bias=0 / direct=3 / weightb=1 / open_gop=0 / weightp=2 / keyint=250 / keyint_min=23 / scenecut=40 / intra_refresh=0 / rc_lookahead=60 / rc=crf / mbtree=1 / crf=17.0 / qcomp=0.60 / qpmin=0 / qpmax=69 / qpstep=4 / ip_ratio=1.40 / aq=3:1.00
Default                                  : Yes
Forced                                   : No
Color range                              : Limited
Matrix coefficients                      : BT.709

Audio
ID                                       : 2
Format                                   : AC-3
Format/Info                              : Audio Coding 3
Commercial name                          : Dolby Digital
Codec ID                                 : A_AC3
Duration                                 : 1 h 28 min
Bit rate mode                            : Constant
Bit rate                                 : 640 kb/s
Channel(s)                               : 6 channels
Channel layout                           : L R C LFE Ls Rs
Sampling rate                            : 48.0 kHz
Frame rate                               : 31.250 FPS (1536 SPF)
Compression mode                         : Lossy
Stream size                              : 403 MiB (15%)
Language                                 : English
Service kind                             : Complete Main
Default                                  : Yes
Forced                                   : No

Text
ID                                       : 3
Format                                   : PGS
Muxing mode                              : zlib
Codec ID                                 : S_HDMV/PGS
Codec ID/Info                            : Picture based subtitle format used on BDs/HD-DVDs
Duration                                 : 1 h 21 min
Bit rate                                 : 42.6 kb/s
Count of elements                        : 2548
Stream size                              : 24.9 MiB (1%)
Language                                 : German
Default                                  : No
Forced                                   : No

Menu
00:00:00.000                             : en:00:00:00.000
00:08:47.235                             : en:00:08:47.235
00:17:31.092                             : en:00:17:31.092
00:26:22.831                             : en:00:26:22.831
00:35:00.807                             : en:00:35:00.807
00:43:42.662                             : en:00:43:42.662
00:52:34.276                             : en:00:52:34.276
01:01:24.431                             : en:01:01:24.431
01:10:32.937                             : en:01:10:32.937
01:19:12.164                             : en:01:19:12.164

a3e802651e12de19220e57d8beadd0ba.jpg





                                                                                                                                                                                                        
                                                                                                                                                                                                                                                                                                                                                                                                                                                                                                                                                                                                                                                                                                                                                                                                                                                        
a02ae08abfefef7927fa31b759a87f87.torrent (26.16 KB, 下载次数: 0)

回复

使用道具 举报

小黑屋|西西论坛

本网站所有资源来自网络,如无意中侵犯了您的权益,请发邮件至 [email protected],立即清除相关链接

GMT+8, 2022-1-20 04:03 , Processed in 0.125148 second(s), 17 queries .

Powered by Discuz! X3.2

© 2001-2013 Comsenz Inc.

快速回复 返回顶部 返回列表