西西论坛

 找回密码
 立即注册
搜索

戏王之王 The.Greatest.Show.on.Earth.1952.720p.BluRay.x264-GUACAMOLE 5.77GB

[复制链接]
admin 发表于 2021-12-19 10:48:29 | 显示全部楼层 |阅读模式
戏王之王 The.Greatest.Show.on.Earth.1952.720p.BluRay.x264-GUACAMOLE 5.77GB                                                                                                                                                                                                                                                                                                                                                                                                                                                                                                                                        -->
帖子完整标题:戏王之王 The.Greatest.Show.on.Earth.1952.720p.BluRay.x264-GUACAMOLE 5.77GB



1fe353201a9a434dc1821c610f13153f.jpg



◎译  名 戏王之王/Cecil B. DeMille's The Greatest Show on Earth/大马戏团
◎片  名 The Greatest Show on Earth
◎年  代 1952
◎产  地 美国
◎类  别 剧情 / 爱情 / 家庭
◎语  言 英语
◎上映日期 1952-01-10
◎豆瓣评分 7.1/10 from 1005 users
◎豆瓣链接 
◎片  长 152 分钟
◎导  演 塞西尔·B·戴米尔 Cecil B. DeMille
◎编  剧 弗雷德里克·弗兰克 Fredric M. Frank / 巴雷·林登 Barré Lyndon
◎主  演 詹姆斯·斯图尔特 James Stewart
       查尔顿·赫斯顿 Charlton Heston
       蓓蒂·赫顿 Betty Hutton
       柯纳·王尔德 Cornel Wilde
       多萝西·拉莫尔 Dorothy Lamour
       格洛丽亚·格雷厄姆 Gloria Grahame
       亨利·威尔克松 Henry Wilcoxon

◎标  签 美国 | 奥斯卡最佳影片 | 奥斯卡 | 1952 | 美国电影 | 剧情 | 爱情 | JamesStewart

◎简  介

  塞西尔.B.戴米尔执导的这部影片,获得第二十五届奥斯卡最佳影片和最佳电影故事两项大奖。面对电视界的蓬勃发展,饱受威协的电影界,在这届选择了一部足以压倒电视气势的超级豪华大制作,作为这一届的最佳影片得主。故事描述一个在财政上出现问题的马戏团,为了让团员继续作一整季的表演,签下了有着名空中飞人圣巴斯蒂安加盟的演出。这使一心想在新一季成名的女空中飞人哈莉大为不满,另外经理布莱特为了事业一直刻意冷落暗恋他的哈莉。蒂安却因一次表演危险性高的动作发生意外,跌断了一只手而断送了表演前途。同时一名十年前失手杀妻的医生以小丑身份在马戏团里表演,后因火车翻覆而救布莱特,被警察发现。哈莉因此而被感动,于是对布莱特重燃爱火,并负起整顿马戏团表演的工作。查尔顿.赫斯登和康奈尔.威尔德的表演相当不错。

◎获奖情况

  第25届奥斯卡金像奖 ?(1953)
  最佳影片 塞西尔·B·戴米尔
  最佳导演(提名) 塞西尔·B·戴米尔
  最佳电影故事 弗兰克·卡韦特?/?弗雷德里克·弗兰克?/?西奥多·圣约翰
  最佳剪辑(提名) 安妮·鲍切恩斯
  彩色片最佳服装设计(提名) 多罗西·吉金斯?/?伊迪丝·海德?/?迈尔斯·怀特
  
  第10届金球奖 ?(1953)
  电影类最佳剧情片
  电影类最佳导演 塞西尔·B·戴米尔
  电影类彩色片最佳摄影 J·佩维雷尔·马利?/?乔治·巴恩斯
Video
ID                                       : 1
Format                                   : AVC
Format/Info                              : Advanced Video Codec
Format profile                           : .1
Format settings                          : CABAC / 8 Ref Frames
Format settings, CABAC                   : Yes
Format settings, Reference frames        : 8 frames
Codec ID                                 : V_MPEG4/ISO/AVC
Duration                                 : 2 h 32 min
Bit rate                                 : 4 758 kb/s
Width                                    : 988 pixels
Height                                   : 720 pixels
Display aspect ratio                     : 1.372
Frame rate mode                          : Constant
Frame rate                               : 23.976 (24000/1001/189150) FPS
Color space                              : YUV
Chroma subsampling                       : 4:2:0
Bit depth                                : 8 bits
Scan type                                : Progressive
Bits/(Pixel*Frame)                       : 0.279
Stream size                              : 5.07 GiB (88%)
Writing library                          : x264 core 164 r3075 66a5bc1
Encoding settings                        : cabac=1 / ref=8 / deblock=1:-3:-3 / analyse=0x3:0x133 / me=umh / subme=9 / psy=1 / psy_rd=1.00:0.00 / mixed_ref=1 / me_range=16 / chroma_me=1 / trellis=2 / 8x8dct=1 / cqm=0 / deadzone=21,11 / fast_pskip=0 / chroma_qp_offset=-2 / threads=22 / lookahead_threads=1 / sliced_threads=0 / nr=0 / decimate=1 / interlaced=0 / bluray_compat=0 / constrained_intra=0 / bframes=3 / b_pyramid=2 / b_adapt=2 / b_bias=0 / direct=3 / weightb=1 / open_gop=0 / weightp=2 / keyint=250 / keyint_min=23 / scenecut=40 / intra_refresh=0 / rc_lookahead=60 / rc=crf / mbtree=1 / crf=17.0 / qcomp=0.60 / qpmin=0 / qpmax=69 / qpstep=4 / ip_ratio=1.40 / aq=3:0.60
Default                                  : Yes
Forced                                   : No
Color range                              : Limited
Matrix coefficients                      : BT.709

Audio
ID                                       : 2
Format                                   : FLAC
Format/Info                              : Free Lossless Audio Codec
Codec ID                                 : A_FLAC
Duration                                 : 2 h 32 min
Bit rate mode                            : Variable
Bit rate                                 : 602 kb/s
Channel(s)                               : 2 channels
Channel layout                           : L R
Sampling rate                            : 48.0 kHz
Frame rate                               : 11.719 FPS (4096 SPF)
Bit depth                                : 24 bits
Compression mode                         : Lossless
Stream size                              : 657 MiB (11%)
Writing library                          : libFLAC 1.2.1 (UTC 2007-09-17)
Language                                 : English
Default                                  : Yes
Forced                                   : No

Text #1
ID                                       : 3
Format                                   : PGS
Muxing mode                              : zlib
Codec ID                                 : S_HDMV/PGS
Codec ID/Info                            : Picture based subtitle format used on BDs/HD-DVDs
Duration                                 : 2 h 30 min
Bit rate                                 : 42.4 kb/s
Count of elements                        : 4198
Stream size                              : 45.5 MiB (1%)
Language                                 : English
Default                                  : No
Forced                                   : No

Text #2
ID                                       : 4
Format                                   : PGS
Muxing mode                              : zlib
Codec ID                                 : S_HDMV/PGS
Codec ID/Info                            : Picture based subtitle format used on BDs/HD-DVDs
Duration                                 : 2 h 32 min
Bit rate                                 : 46.6 kb/s
Count of elements                        : 4672
Stream size                              : 50.8 MiB (1%)
Language                                 : English
Default                                  : No
Forced                                   : No

Text #3
ID                                       : 5
Format                                   : PGS
Muxing mode                              : zlib
Codec ID                                 : S_HDMV/PGS
Codec ID/Info                            : Picture based subtitle format used on BDs/HD-DVDs
Duration                                 : 2 h 32 min
Bit rate                                 : 40.2 kb/s
Count of elements                        : 4200
Stream size                              : 43.8 MiB (1%)
Language                                 : French
Default                                  : No
Forced                                   : No

Text #4
ID                                       : 6
Format                                   : PGS
Muxing mode                              : zlib
Codec ID                                 : S_HDMV/PGS
Codec ID/Info                            : Picture based subtitle format used on BDs/HD-DVDs
Duration                                 : 2 h 32 min
Bit rate                                 : 44.3 kb/s
Count of elements                        : 4204
Stream size                              : 48.2 MiB (1%)
Language                                 : German
Default                                  : No
Forced                                   : No

Menu
00:00:00.000                             : en:00:00:00.000
00:08:47.777                             : en:00:08:47.777
00:14:48.596                             : en:00:14:48.596
00:19:51.107                             : en:00:19:51.107
00:27:49.418                             : en:00:27:49.418
00:32:53.680                             : en:00:32:53.680
00:40:08.990                             : en:00:40:08.990
00:44:40.970                             : en:00:44:40.970
00:52:26.018                             : en:00:52:26.018
01:01:02.033                             : en:01:01:02.033
01:07:11.945                             : en:01:07:11.945
01:14:21.874                             : en:01:14:21.874
01:20:16.228                             : en:01:20:16.228
01:27:47.888                             : en:01:27:47.888
01:34:34.711                             : en:01:34:34.711
01:42:45.493                             : en:01:42:45.493
01:48:07.981                             : en:01:48:07.981
01:53:57.956                             : en:01:53:57.956
02:00:55.206                             : en:02:00:55.206
02:08:19.233                             : en:02:08:19.233
02:15:22.197                             : en:02:15:22.197
02:22:51.563                             : en:02:22:51.563
02:29:17.448                             : en:02:29:17.448

d4c217c0a2c24ae9c7c4c0ef3d96f0c1.jpg





                                                                                                                                                                                                        
                                                                                                                                                                                                                                                                                                                                                                                                                                                                                                                                                                                                                                                                                                                                                                                                                                                        
4fd4cee86c80e5bc24ecca0a081be92f.torrent (15.13 KB, 下载次数: 0)

回复

使用道具 举报

小黑屋|西西论坛

本网站所有资源来自网络,如无意中侵犯了您的权益,请发邮件至 [email protected],立即清除相关链接

GMT+8, 2022-1-20 03:48 , Processed in 0.122724 second(s), 17 queries .

Powered by Discuz! X3.2

© 2001-2013 Comsenz Inc.

快速回复 返回顶部 返回列表