西西论坛

 找回密码
 立即注册
搜索

香草的天空/香子兰天空 Vanilla.Sky.2001.REMASTERED.720p.BluRay.x264-SNOW 8.41GB . ...

[复制链接]
admin 发表于 2021-12-18 08:47:36 | 显示全部楼层 |阅读模式
香草的天空/香子兰天空 Vanilla.Sky.2001.REMASTERED.720p.BluRay.x264-SNOW 8.41GB                                                                                                                                                                                                                                                                                                                                                                                                                                                                                                                                        -->
帖子完整标题:香草的天空/香子兰天空 Vanilla.Sky.2001.REMASTERED.720p.BluRay.x264-SNOW 8.41GB



d7f6652d764c28c906e23e9156e14892.jpg



◎译  名 香草的天空/香子兰天空/香草天空(台)/魂离情外天(港)
◎片  名 Vanilla Sky
◎年  代 2001
◎产  地 美国,西班牙
◎类  别 爱情 / 科幻 / 悬疑 / 惊悚
◎语  言 英语,西班牙语
◎上映日期 2001-12-14
◎豆瓣评分 7.5/10 from 59483 users
◎豆瓣链接 
◎片  长 136 分钟
◎导  演 卡梅伦·克罗 Cameron Crowe
◎编  剧 卡梅伦·克罗 Cameron Crowe / 马特奥·希尔 Mateo Gil / 亚历杭德罗·阿梅纳瓦尔 Alejandro Amenábar
◎主  演 汤姆·克鲁斯 Tom Cruise
       佩内洛普·克鲁兹 Penélope Cruz
       卡梅隆·迪亚兹 Cameron Diaz
       库尔特·拉塞尔 Kurt Russell
       杰森·李 Jason Lee
       诺亚·泰勒 Noah Taylor
       蒂莫西·斯波 Timothy Spall
       蒂尔达·斯文顿 Tilda Swinton
       迈克尔·珊农 Michael Shannon
       史蒂文·斯皮尔伯格 Steven Spielberg
       克里斯蒂·威尔 Christie Will
       马克·科兹莱克 Mark Kozelek
       卡梅隆·沃特森 Cameron Watson
       斯黛西·谢尔 Stacey Sher
       乔纳森·桑格 Jonathan Sanger
       Todd Harrison Todd Harrison
       罗杰·林 Roger Lim
       艾丽西亚·维特 Alicia Witt
       布伦特·塞克斯顿 Brent Sexton
       威廉·麦鲍瑟 William Mapother
       肯·梁 Ken Leung
       Danielle Wolf Danielle Wolf
       Andrei Sterling Andrei Sterling
       Jane Pratt Jane Pratt
       柯南·奥布莱恩 Conan O'Brien
       马克·布拉姆霍尔 Mark Bramhall
       Scotch Ellis Loring Scotch Ellis Loring
       伊万娜·米利塞维奇 Ivana Mili?evi?
       吉恩·卡罗尔 Jean Carol
       劳拉·弗雷泽 Laura Fraser
       W·厄尔·布朗 W. Earl Brown
       珍妮弗·阿斯彭 Jennifer Aspen
       塔拉·利平斯基 Tara Lipinski
       汤米·李 Tommy Lee
       Ryan Keating Ryan Keating
       阿曼德·舒尔茨 Armand Schultz
       约翰尼·盖尔克奇 Johnny Galecki
       路易斯·E·罗萨斯 Louis E. Rosas
       莎洛姆·哈罗 Shalom Harlow
       简·门罗 Jan Munroe
       Michael Kehoe Michael Kehoe
       马克·平特 Mark Pinter
       Robert F. Harrison Robert F. Harrison
       扎克·哈德逊 Zach Hudson
       詹姆斯·墨塔夫 James Murtaugh

◎标  签 悬疑 | 美国 | 爱情 | TomCruise | 心理 | 科幻 | 美国电影 | 香草天空

◎简  介

  大卫·阿姆斯(汤姆·克鲁斯 Tom Cruise 饰)可以称为上帝的完美杰作:他家境优渥、事业有成、仪表堂堂、风度翩翩,无数性感迷人的女性都为其柔情蜜语所倾倒。而大卫自是不愿浪费这天赐的条件,他四处出击,以猎艳为乐,甚至连好友的女朋友索菲娅(佩内洛普·克鲁兹 Penélope Cruz 饰)都不放过。不过,大卫终要为自己的花心付出代价,在和前女友茱丽(卡梅伦·迪雅兹 Cameron Diaz 饰)乘车出行之时,茱丽开车撞向大树,企图与之同归于尽。这场车祸使大卫的人生跌入谷底,而更为诡异的却仍在前面等待着他……
  
  本片荣获2002年美国科幻恐怖电影学院最佳男主角奖(汤姆·克鲁斯)、2001年波士顿影评人协会最佳女配角奖(Cameron Diaz)、2002年芝加哥影评人协会最佳女配角奖。

◎获奖情况

  第74届奥斯卡金像奖 ?(2002)
  最佳原创歌曲(提名) 保罗·麦卡特尼
  
  第59届金球奖 ?(2002)
  电影类最佳女配角(提名) 卡梅隆·迪亚兹
  电影类最佳原创歌曲(提名) 保罗·麦卡特尼
Video
ID                                       : 1
Format                                   : AVC
Format/Info                              : Advanced Video Codec
Format profile                           :
Format settings                          : CABAC / 8 Ref Frames
Format settings, CABAC                   : Yes
Format settings, Reference frames        : 8 frames
Codec ID                                 : V_MPEG4/ISO/AVC
Duration                                 : 2 h 15 min
Bit rate                                 : 8 014 kb/s
Width                                    : 1 280 pixels
Height                                   : 720 pixels
Display aspect ratio                     : 16:9
Frame rate mode                          : Constant
Frame rate                               : 23.976 (24000/1001/189150) FPS
Color space                              : YUV
Chroma subsampling                       : 4:2:0
Bit depth                                : 8 bits
Scan type                                : Progressive
Bits/(Pixel*Frame)                       : 0.363
Stream size                              : 7.61 GiB (91%)
Writing library                          : x264 core 164 r3079 d9a19f0
Encoding settings                        : cabac=1 / ref=8 / deblock=1:-3:-3 / analyse=0x3:0x133 / me=umh / subme=9 / psy=1 / psy_rd=1.00:0.00 / mixed_ref=1 / me_range=16 / chroma_me=1 / trellis=2 / 8x8dct=1 / cqm=0 / deadzone=21,11 / fast_pskip=0 / chroma_qp_offset=-2 / threads=24 / lookahead_threads=2 / sliced_threads=0 / nr=0 / decimate=0 / interlaced=0 / bluray_compat=0 / constrained_intra=0 / bframes=3 / b_pyramid=2 / b_adapt=2 / b_bias=0 / direct=3 / weightb=1 / open_gop=0 / weightp=2 / keyint=250 / keyint_min=23 / scenecut=40 / intra_refresh=0 / rc=crf / mbtree=0 / crf=17.5 / qcomp=0.60 / qpmin=0 / qpmax=69 / qpstep=4 / ip_ratio=1.40 / pb_ratio=1.30 / aq=3:0.70
Language                                 : English
Default                                  : Yes
Forced                                   : No
Color range                              : Limited
Matrix coefficients                      : BT.709

Audio #1
ID                                       : 2
Format                                   : AC-3
Format/Info                              : Audio Coding 3
Commercial name                          : Dolby Digital
Codec ID                                 : A_AC3
Duration                                 : 2 h 15 min
Bit rate mode                            : Constant
Bit rate                                 : 640 kb/s
Channel(s)                               : 6 channels
Channel layout                           : L R C LFE Ls Rs
Sampling rate                            : 48.0 kHz
Frame rate                               : 31.250 FPS (1536 SPF)
Compression mode                         : Lossy
Stream size                              : 622 MiB (7%)
Language                                 : English
Service kind                             : Complete Main
Default                                  : Yes
Forced                                   : No

Audio #2
ID                                       : 3
Format                                   : AAC LC
Format/Info                              : Advanced Audio Codec Low Complexity
Codec ID                                 : A_AAC-2
Duration                                 : 2 h 15 min
Bit rate                                 : 105 kb/s
Channel(s)                               : 2 channels
Channel layout                           : L R
Sampling rate                            : 48.0 kHz
Frame rate                               : 46.875 FPS (1024 SPF)
Compression mode                         : Lossy
Delay relative to video                  : 20 ms
Stream size                              : 102 MiB (1%)
Title                                    : Commentary with director/writer Cameron Crowe & composer Nancy Wilson
Language                                 : English
Default                                  : No
Forced                                   : No

Text #1
ID                                       : 4
Format                                   : UTF-8
Codec ID                                 : S_TEXT/UTF8
Codec ID/Info                            : UTF-8 Plain Text
Duration                                 : 2 h 8 min
Bit rate                                 : 52 b/s
Count of elements                        : 1329
Stream size                              : 49.6 KiB (0%)
Title                                    : English (SRT)
Language                                 : English
Default                                  : No
Forced                                   : No

Text #2
ID                                       : 5
Format                                   : UTF-8
Codec ID                                 : S_TEXT/UTF8
Codec ID/Info                            : UTF-8 Plain Text
Duration                                 : 2 h 8 min
Bit rate                                 : 67 b/s
Count of elements                        : 1781
Stream size                              : 63.2 KiB (0%)
Title                                    : English (SDH SRT)
Language                                 : English
Default                                  : No
Forced                                   : No

Text #3
ID                                       : 6
Format                                   : UTF-8
Codec ID                                 : S_TEXT/UTF8
Codec ID/Info                            : UTF-8 Plain Text
Duration                                 : 2 h 15 min
Bit rate                                 : 91 b/s
Count of elements                        : 1987
Stream size                              : 91.0 KiB (0%)
Title                                    : English (Commentary SRT)
Language                                 : English
Default                                  : No
Forced                                   : No

Text #4
ID                                       : 7
Format                                   : PGS
Muxing mode                              : zlib
Codec ID                                 : S_HDMV/PGS
Codec ID/Info                            : Picture based subtitle format used on BDs/HD-DVDs
Duration                                 : 2 h 8 min
Bit rate                                 : 35.6 kb/s
Count of elements                        : 2658
Stream size                              : 32.7 MiB (0%)
Title                                    : English
Language                                 : English
Default                                  : No
Forced                                   : No

Text #5
ID                                       : 8
Format                                   : PGS
Muxing mode                              : zlib
Codec ID                                 : S_HDMV/PGS
Codec ID/Info                            : Picture based subtitle format used on BDs/HD-DVDs
Duration                                 : 2 h 8 min
Bit rate                                 : 45.1 kb/s
Count of elements                        : 3563
Stream size                              : 41.5 MiB (0%)
Title                                    : English (SDH)
Language                                 : English
Default                                  : No
Forced                                   : No

Text #6
ID                                       : 9
Format                                   : PGS
Muxing mode                              : zlib
Codec ID                                 : S_HDMV/PGS
Codec ID/Info                            : Picture based subtitle format used on BDs/HD-DVDs
Duration                                 : 2 h 15 min
Bit rate                                 : 61.3 kb/s
Count of elements                        : 3974
Stream size                              : 59.5 MiB (1%)
Title                                    : English (Commentary)
Language                                 : English
Default                                  : No
Forced                                   : No

Text #7
ID                                       : 10
Format                                   : PGS
Muxing mode                              : zlib
Codec ID                                 : S_HDMV/PGS
Codec ID/Info                            : Picture based subtitle format used on BDs/HD-DVDs
Duration                                 : 2 h 8 min
Bit rate                                 : 42.7 kb/s
Count of elements                        : 2836
Stream size                              : 39.2 MiB (0%)
Title                                    : German
Language                                 : German
Default                                  : No
Forced                                   : No

Menu
00:00:00.000                             : en:Chapter 01
00:06:22.882                             : en:Chapter 02
00:10:55.780                             : en:Chapter 03
00:15:09.408                             : en:Chapter 04
00:19:21.327                             : en:Chapter 05
00:22:45.447                             : en:Chapter 06
00:27:02.246                             : en:Chapter 07
00:30:28.577                             : en:Chapter 08
00:37:47.807                             : en:Chapter 09
00:43:35.488                             : en:Chapter 10
00:51:41.348                             : en:Chapter 11
00:54:51.038                             : en:Chapter 12
00:59:01.913                             : en:Chapter 13
01:06:39.829                             : en:Chapter 14
01:10:45.199                             : en:Chapter 15
01:13:06.674                             : en:Chapter 16
01:20:11.932                             : en:Chapter 17
01:23:59.910                             : en:Chapter 18
01:28:56.623                             : en:Chapter 19
01:33:05.246                             : en:Chapter 20
01:35:22.800                             : en:Chapter 21
01:42:38.944                             : en:Chapter 22
01:45:58.269                             : en:Chapter 23
01:52:39.336                             : en:Chapter 24
01:57:55.735                             : en:Chapter 25
02:01:47.300                             : en:Chapter 26
02:06:24.243                             : en:Chapter 27
02:09:25.758                             : en:Chapter 28





                                                                                                                                                                                                        
                                                                                                                                                                                                                                                                                                                                                                                                                                                                                                                                                                                                                                                                                                                                                                                                                                                        
a5adfb5a79007b51d97f7c93ab1c9e3d.torrent (21.75 KB, 下载次数: 0)

回复

使用道具 举报

小黑屋|西西论坛

本网站所有资源来自网络,如无意中侵犯了您的权益,请发邮件至 [email protected],立即清除相关链接

GMT+8, 2022-6-27 04:15 , Processed in 0.114882 second(s), 17 queries .

Powered by Discuz! X3.2

© 2001-2013 Comsenz Inc.

快速回复 返回顶部 返回列表