西西论坛

 找回密码
 立即注册
搜索

荒野求生/内地 Outback.2019.720p.BluRay.x264-PussyFoot 1.96GB

[复制链接]
admin 发表于 2021-12-18 08:47:33 | 显示全部楼层 |阅读模式
荒野求生/内地 Outback.2019.720p.BluRay.x264-PussyFoot 1.96GB                                                                                                                                                                                                                                                                                                                                                                                                                                                                                                                                        -->
帖子完整标题:荒野求生/内地 Outback.2019.720p.BluRay.x264-PussyFoot 1.96GB



cc1236caa652fd0265e633247f14ef42.jpg



◎译  名 荒野求生/内地
◎片  名 Outback
◎年  代 2019
◎产  地 澳大利亚
◎类  别 剧情 / 惊悚
◎语  言 英语
◎上映日期 2019-12-10(澳大利亚)
◎豆瓣评分 /10 from 0 users
◎豆瓣链接 
◎片  长 86分钟
◎主  演 Brendan Donoghue Brendan Donoghue

◎标  签 荒野求生 | 澳大利亚 | 澳大利亚电影 | 惊悚 | 剧情 | 2019 | 性奴,反转 | [歐美]

◎简  介

  年轻男人在飞机上当众向女友求婚,女友以未准备好为理由拒绝。此后两人在澳大利亚草原探险之际迷路,弹尽粮绝的他们在草原要面对凶猛野兽的威胁以及剧毒虫蛇,同时还需要解决水源食物等问题绝地求生...
Video
ID                                       : 1
Format                                   : AVC
Format/Info                              : Advanced Video Codec
Format profile                           :
Format settings                          : CABAC / 8 Ref Frames
Format settings, CABAC                   : Yes
Format settings, Reference frames        : 8 frames
Codec ID                                 : V_MPEG4/ISO/AVC
Duration                                 : 1 h 25 min
Bit rate                                 : 2 603 kb/s
Width                                    : 1 280 pixels
Height                                   : 536 pixels
Display aspect ratio                     : 2.40:1
Frame rate mode                          : Constant
Frame rate                               : 23.976 (24000/1001/189150) FPS
Color space                              : YUV
Chroma subsampling                       : 4:2:0
Bit depth                                : 8 bits
Scan type                                : Progressive
Bits/(Pixel*Frame)                       : 0.158
Stream size                              : 1.56 GiB (80%)
Writing library                          : x264 core 164 r3075 66a5bc1
Encoding settings                        : cabac=1 / ref=8 / deblock=1:-3:-3 / analyse=0x3:0x133 / me=umh / subme=9 / psy=1 / psy_rd=1.00:0.00 / mixed_ref=1 / me_range=16 / chroma_me=1 / trellis=2 / 8x8dct=1 / cqm=0 / deadzone=21,11 / fast_pskip=0 / chroma_qp_offset=-2 / threads=17 / lookahead_threads=1 / sliced_threads=0 / nr=0 / decimate=1 / interlaced=0 / bluray_compat=0 / constrained_intra=0 / bframes=3 / b_pyramid=2 / b_adapt=2 / b_bias=0 / direct=3 / weightb=1 / open_gop=0 / weightp=2 / keyint=250 / keyint_min=23 / scenecut=40 / intra_refresh=0 / rc_lookahead=60 / rc=crf / mbtree=1 / crf=16.0 / qcomp=0.60 / qpmin=0 / qpmax=69 / qpstep=4 / ip_ratio=1.40 / aq=1:1.00
Language                                 : English
Default                                  : Yes
Forced                                   : No

Audio
ID                                       : 2
Format                                   : AC-3
Format/Info                              : Audio Coding 3
Commercial name                          : Dolby Digital
Codec ID                                 : A_AC3
Duration                                 : 1 h 25 min
Bit rate mode                            : Constant
Bit rate                                 : 640 kb/s
Channel(s)                               : 6 channels
Channel layout                           : L R C LFE Ls Rs
Sampling rate                            : 48.0 kHz
Frame rate                               : 31.250 FPS (1536 SPF)
Compression mode                         : Lossy
Stream size                              : 394 MiB (20%)
Language                                 : English
Service kind                             : Complete Main
Default                                  : Yes
Forced                                   : No

Text #1
ID                                       : 3
Format                                   : PGS
Muxing mode                              : zlib
Codec ID                                 : S_HDMV/PGS
Codec ID/Info                            : Picture based subtitle format used on BDs/HD-DVDs
Duration                                 : 1 h 24 min
Bit rate                                 : 18.6 kb/s
Count of elements                        : 1270
Stream size                              : 11.3 MiB (1%)
Language                                 : German
Default                                  : No
Forced                                   : No

Text #2
ID                                       : 4
Format                                   : PGS
Muxing mode                              : zlib
Codec ID                                 : S_HDMV/PGS
Codec ID/Info                            : Picture based subtitle format used on BDs/HD-DVDs
Duration                                 : 1 h 24 min
Bit rate                                 : 1 281 b/s
Count of elements                        : 76
Stream size                              : 796 KiB (0%)
Language                                 : German
Default                                  : No
Forced                                   : No

Menu
00:00:00.000                             : en:Chapter 01
00:06:44.988                             : en:Chapter 02
00:13:58.755                             : en:Chapter 03
00:20:55.045                             : en:Chapter 04
00:28:21.366                             : en:Chapter 05
00:35:15.405                             : en:Chapter 06
00:42:14.198                             : en:Chapter 07
00:49:13.576                             : en:Chapter 08
00:55:57.187                             : en:Chapter 09
01:03:03.655                             : en:Chapter 10
01:10:05.618                             : en:Chapter 11
01:16:39.261                             : en:Chapter 12
01:21:56.453                             : en:Chapter 13

1f788ba24c232044be5938360a69fb82.jpg





                                                                                                                                                                                                        
                                                                                                                                                                                                                                                                                                                                                                                                                                                                                                                                                                                                                                                                                                                                                                                                                                                        
dbe10728dd48848e99b856d9b3ee30ea.torrent (20.28 KB, 下载次数: 0)

回复

使用道具 举报

小黑屋|西西论坛

本网站所有资源来自网络,如无意中侵犯了您的权益,请发邮件至 [email protected],立即清除相关链接

GMT+8, 2022-6-26 22:33 , Processed in 0.110623 second(s), 17 queries .

Powered by Discuz! X3.2

© 2001-2013 Comsenz Inc.

快速回复 返回顶部 返回列表