西西论坛

 找回密码
 立即注册
搜索

警界双雄/极速双雄 Starsky.and.Hutch.2004.iNTERNAL.720p.BluRay.x264-PEGASUS 5.26G ...

[复制链接]
admin 发表于 2021-12-17 10:48:18 | 显示全部楼层 |阅读模式
警界双雄/极速双雄 Starsky.and.Hutch.2004.iNTERNAL.720p.BluRay.x264-PEGASUS 5.26GB                                                                                                                                                                                                                                                                                                                                                                                                                                                                                                                                        -->
帖子完整标题:警界双雄/极速双雄 Starsky.and.Hutch.2004.iNTERNAL.720p.BluRay.x264-PEGASUS 5.26GB



0476590b94854a383b1886635cda9f48.jpg



◎译  名 警界双雄/极速双雄
◎片  名 Starsky & Hutch
◎年  代 2004
◎产  地 美国
◎类  别 喜剧 / 动作 / 犯罪
◎语  言 英语,韩语
◎上映日期 2004-04-08
◎豆瓣评分 6.4/10 from 1334 users
◎豆瓣链接 
◎片  长 101 分钟
◎导  演 托德·菲利普斯 Todd Phillips
◎编  剧 威廉·博林 William Blinn / 史蒂维·隆 Stevie Long / 托德·菲利普斯 Todd Phillips / John O'Brien John O'Brien / 斯科特·阿姆斯特朗 Scot Armstrong
◎主  演 本·斯蒂勒 Ben Stiller
       欧文·威尔逊 Owen Wilson
       史努比狗狗 Snoop Dogg
       弗雷德·威廉森 Fred Williamson
       文斯·沃恩 Vince Vaughn
       朱丽叶特·刘易斯 Juliette Lewis
       杰森·贝特曼 Jason Bateman
       艾米·斯马特 Amy Smart
       卡门·伊莱克特拉 Carmen Electra
       克里斯·潘 Chris Penn
       布兰迪·罗德里克 Brande Roderick
       莫莉·西姆斯 Molly Sims
       马特·沃尔什 Matt Walsh
       G·T·霍尔姆 G.T. Holme
       明妮莱格里马斯 Minnie Lagrimas
       Har Mar Superstar Har Mar Superstar
       布列塔尼·派丽-拉塞尔 Brittany Perry-Russell
       理查德·埃德森 Richard Edson
       杰森贝特 Jason Beitel
       克里斯汀文森特 Christian Vincent
       安波米德 Amber Mead
       萨拉斯维恩 Sara Swain
       普拉莫德库马尔 Pramod Kumar
       金伯莉·怀亚特 Kimberly Wyatt
       泰瑞·克鲁斯 Terry Crews
       瑞秋·哈里斯 Rachael Harris
       威尔·法瑞尔 Will Ferrell
       帕顿·奥斯瓦尔特 Patton Oswalt
       保罗·迈克尔·格拉泽 Paul Michael Glaser
       贾达·弗雷德兰德 Judah Friedlander
       泰內麦考尔 Tanee McCall
       娜塔利威尔斯 Natalie Willes
       凯文·亚历山大·斯蒂亚 Kevin Alexander Stea
       大卫·普雷斯曼 David Pressman
       布兰登·亨舍尔 Brandon Henschel
       特雷西·迪奥里奥 Tyce Diorio
       奥马尔·J·多尔西 Omar J. Dorsey
       Darlena Tejeiro Darlena Tejeiro
       艾德里安·阿马斯 Adrian Armas
       Nancy Anderson Nancy Anderson
       Timothy Anderson Timothy Anderson
       大卫·索尔 David Soul

◎标  签 喜剧 | 美国 | 动作 | BenStiller | 2004 | 搞笑 | OwenWilson | 美国电影

◎简  介

  七十年代的海湾城警局里,有一位敬业又略显癫狂的警探大卫?斯塔斯基(本?斯蒂勒 Ben Stiller 饰),大卫作风强硬,哪怕再小的案件他也要不计代价抓捕罪犯。而卧底探员肯?哈金森(欧文?威尔逊 Owen Wilson 饰)则几乎完全相反,肯时常装做匪徒打劫,之后借卧底身份溜之大吉。因大卫失去了搭档,上峰将他和肯硬撮合到了一起。
  
  拥有海湾城知名商人身份的里斯背地里却是一名大毒枭,里斯一伙最近研制出了不能被警犬发现的新型可卡因,里斯因为运送可卡因的手下办事不利,将他射杀在海中。死者的尸体被发现,大卫和肯的二人组接手此案,两名性格迥异的警探在里斯布下的迷宫中逐渐接近了事实的真相,但是里斯的狡猾,超乎他们的预料……
Video
ID                                       : 1
Format                                   : AVC
Format/Info                              : Advanced Video Codec
Format profile                           :
Format settings                          : CABAC / 12 Ref Frames
Format settings, CABAC                   : Yes
Format settings, Reference frames        : 12 frames
Codec ID                                 : V_MPEG4/ISO/AVC
Duration                                 : 1 h 40 min
Bit rate                                 : 6 733 kb/s
Width                                    : 1 280 pixels
Height                                   : 528 pixels
Display aspect ratio                     : 2.40:1
Frame rate mode                          : Constant
Frame rate                               : 23.976 (24000/1001/189150) FPS
Color space                              : YUV
Chroma subsampling                       : 4:2:0
Bit depth                                : 8 bits
Scan type                                : Progressive
Bits/(Pixel*Frame)                       : 0.416
Stream size                              : 4.73 GiB (90%)
Writing library                          : x264 core 163 r3059 b684ebe0
Encoding settings                        : cabac=1 / ref=12 / deblock=1:-3:-3 / analyse=0x3:0x133 / me=umh / subme=10 / psy=1 / psy_rd=1.00:0.00 / mixed_ref=1 / me_range=32 / chroma_me=1 / trellis=2 / 8x8dct=1 / cqm=0 / deadzone=21,11 / fast_pskip=0 / chroma_qp_offset=-2 / threads=16 / lookahead_threads=4 / sliced_threads=0 / nr=0 / decimate=0 / interlaced=0 / bluray_compat=0 / constrained_intra=0 / bframes=16 / b_pyramid=2 / b_adapt=2 / b_bias=0 / direct=3 / weightb=1 / open_gop=0 / weightp=2 / keyint=240 / keyint_min=24 / scenecut=40 / intra_refresh=0 / rc_lookahead=60 / rc=crf / mbtree=0 / crf=15.8 / qcomp=0.60 / qpmin=0 / qpmax=69 / qpstep=4 / vbv_maxrate=62500 / vbv_bufsize=78125 / crf_max=0.0 / nal_hrd=none / filler=0 / ip_ratio=1.40 / pb_ratio=1.30 / aq=2:1.00
Default                                  : Yes
Forced                                   : No
Color range                              : Limited
Color primaries                          : BT.709
Transfer characteristics                 : BT.709
Matrix coefficients                      : BT.709

Audio #1
ID                                       : 2
Format                                   : AC-3
Format/Info                              : Audio Coding 3
Commercial name                          : Dolby Digital
Codec ID                                 : A_AC3
Duration                                 : 1 h 40 min
Bit rate mode                            : Constant
Bit rate                                 : 640 kb/s
Channel(s)                               : 6 channels
Channel layout                           : L R C LFE Ls Rs
Sampling rate                            : 48.0 kHz
Frame rate                               : 31.250 FPS (1536 SPF)
Compression mode                         : Lossy
Stream size                              : 460 MiB (9%)
Language                                 : English
Service kind                             : Complete Main
Default                                  : Yes
Forced                                   : No

Audio #2
ID                                       : 3
Format                                   : AAC LC
Format/Info                              : Advanced Audio Codec Low Complexity
Codec ID                                 : A_AAC-2
Duration                                 : 1 h 40 min
Bit rate                                 : 109 kb/s
Channel(s)                               : 2 channels
Channel layout                           : L R
Sampling rate                            : 48.0 kHz
Frame rate                               : 46.875 FPS (1024 SPF)
Compression mode                         : Lossy
Stream size                              : 78.6 MiB (1%)
Title                                    : Commentary from director Todd Phillips
Language                                 : English
Default                                  : No
Forced                                   : No

Text
ID                                       : 4
Format                                   : UTF-8
Codec ID                                 : S_TEXT/UTF8
Codec ID/Info                            : UTF-8 Plain Text
Duration                                 : 1 h 36 min
Bit rate                                 : 95 b/s
Count of elements                        : 2522
Stream size                              : 67.2 KiB (0%)
Title                                    : SDH
Language                                 : English
Default                                  : No
Forced                                   : No

Menu
00:00:00.000                             : :Chapter 1
00:02:19.556                             : :Chapter 2
00:04:34.399                             : :Chapter 3
00:06:37.731                             : :Chapter 4
00:09:03.251                             : :Chapter 5
00:13:31.060                             : :Chapter 6
00:16:55.389                             : :Chapter 7
00:19:56.445                             : :Chapter 8
00:21:55.147                             : :Chapter 9
00:25:31.613                             : :Chapter 10
00:28:58.445                             : :Chapter 11
00:30:12.269                             : :Chapter 12
00:34:00.997                             : :Chapter 13
00:37:59.944                             : :Chapter 14
00:41:38.621                             : :Chapter 15
00:45:21.093                             : :Chapter 16
00:49:59.663                             : :Chapter 17
00:53:13.190                             : :Chapter 18
00:56:28.135                             : :Chapter 19
00:59:33.653                             : :Chapter 20
01:02:29.537                             : :Chapter 21
01:04:09.596                             : :Chapter 22
01:06:48.713                             : :Chapter 23
01:09:24.786                             : :Chapter 24
01:13:00.167                             : :Chapter 25
01:16:52.608                             : :Chapter 26
01:20:24.695                             : :Chapter 27
01:24:50.919                             : :Chapter 28
01:28:41.900                             : :Chapter 29
01:30:47.192                             : :Chapter 30
01:33:57.048                             : :Chapter 31





                                                                                                                                                                                                        
                                                                                                                                                                                                                                                                                                                                                                                                                                                                                                                                                                                                                                                                                                                                                                                                                                                        
93742b982214583e3ae515663329af1c.torrent (13.9 KB, 下载次数: 0)

回复

使用道具 举报

小黑屋|西西论坛

本网站所有资源来自网络,如无意中侵犯了您的权益,请发邮件至 [email protected],立即清除相关链接

GMT+8, 2022-6-29 06:42 , Processed in 0.110558 second(s), 17 queries .

Powered by Discuz! X3.2

© 2001-2013 Comsenz Inc.

快速回复 返回顶部 返回列表