西西论坛

 找回密码
 立即注册
搜索

算牌人/扑克神算师 The.Card.Counter.2021.720p.BluRay.x264-PiGNUS 4.24GB

[复制链接]
admin 发表于 2021-12-16 18:46:06 | 显示全部楼层 |阅读模式
算牌人/扑克神算师 The.Card.Counter.2021.720p.BluRay.x264-PiGNUS 4.24GB                                                                                                                                                                                                                                                                                                                                                                                                                                                                                                                                        -->
帖子完整标题:算牌人/扑克神算师 The.Card.Counter.2021.720p.BluRay.x264-PiGNUS 4.24GB



35531b7cb7eea6588b9163a765ed0c24.jpg



◎译  名 算牌人/扑克神算师(港)/牌桌/算牌手(台)
◎片  名 The Card Counter
◎年  代 2021
◎产  地 英国,中国大陆,美国
◎类  别 剧情 / 动作 / 惊悚
◎语  言 英语
◎上映日期 2021-09-02(威尼斯电影节) / 2021-09-10(美国)
◎豆瓣评分 6.0/10 from 2336 users
◎豆瓣链接 
◎片  长 111分钟
◎导  演 保罗·施拉德 Paul Schrader
◎编  剧 保罗·施拉德 Paul Schrader
◎主  演 奥斯卡·伊萨克 Oscar Isaac
       蒂凡尼·哈迪斯 Tiffany Haddish
       泰伊·谢里丹 Tye Sheridan
       威廉·达福 Willem Dafoe
       亚历山大·巴巴拉 Alexander Babara
       鲍比·C·金 Bobby C. King
       叶卡捷琳娜·贝克 Ekaterina Baker
       布莱恩·特朗 Bryan Truong
       迪伦·弗拉施纳 Dylan Flashner
       刘晨芝 Adrienne Lau
       乔尔·迈克利 Joel Michaely
       比利·斯洛特 Billy Slaughter
       约翰·希亚拉彻 John Ceallach

◎标  签 美国 | 2021 | 剧情 | 犯罪 | 惊悚 | 英国 | 黑色电影 | 电影

◎简  介

  泰尔素日只想玩牌,而奇克是一个脆弱易怒的年轻人,奇克正在寻求帮助,来执行他对军事上校(达福饰)的复仇计划。泰尔也在奇克身上看到了复仇的希望。得益于神秘的赌博金主拉·琳达(哈迪斯饰)的支持,泰尔带领奇克在赌场间辗转,直到三人的目光投向赢得在拉斯维加斯举行的世界扑克大赛。但事实证明,令奇克保持专注是行不通的,同时泰尔也被拖回了他过去的黑暗阴影中。

◎获奖情况

  第78届威尼斯电影节 ?(2021)
  主竞赛单元金狮奖(提名) 保罗·施拉德
  
  第31届哥谭独立电影奖 ?(2021)
  最佳主角演出(提名) 奥斯卡·伊萨克
  最佳剧本(提名) 保罗·施拉德
Video
ID                                       : 1
Format                                   : AVC
Format/Info                              : Advanced Video Codec
Format profile                           :
Format settings                          : CABAC / 8 Ref Frames
Format settings, CABAC                   : Yes
Format settings, Reference frames        : 8 frames
Codec ID                                 : V_MPEG4/ISO/AVC
Duration                                 : 1 h 51 min
Bit rate                                 : 4 769 kb/s
Width                                    : 1 200 pixels
Height                                   : 720 pixels
Display aspect ratio                     : 5:3
Frame rate mode                          : Constant
Frame rate                               : 23.976 (24000/1001/189150) FPS
Color space                              : YUV
Chroma subsampling                       : 4:2:0
Bit depth                                : 8 bits
Scan type                                : Progressive
Bits/(Pixel*Frame)                       : 0.230
Stream size                              : 3.71 GiB (88%)
Writing library                          : x264 core 164 r3079 d9a19f0
Encoding settings                        : cabac=1 / ref=8 / deblock=1:-3:-3 / analyse=0x3:0x133 / me=umh / subme=9 / psy=1 / psy_rd=1.00:0.00 / mixed_ref=1 / me_range=16 / chroma_me=1 / trellis=2 / 8x8dct=1 / cqm=0 / deadzone=21,11 / fast_pskip=1 / chroma_qp_offset=-2 / threads=22 / lookahead_threads=1 / sliced_threads=0 / nr=0 / decimate=1 / interlaced=0 / bluray_compat=0 / constrained_intra=0 / bframes=3 / b_pyramid=2 / b_adapt=2 / b_bias=0 / direct=3 / weightb=1 / open_gop=0 / weightp=2 / keyint=250 / keyint_min=23 / scenecut=40 / intra_refresh=0 / rc_lookahead=60 / rc=crf / mbtree=1 / crf=14.5 / qcomp=0.60 / qpmin=0 / qpmax=69 / qpstep=4 / ip_ratio=1.40 / aq=1:1.00
Default                                  : Yes
Forced                                   : No

Audio
ID                                       : 2
Format                                   : AC-3
Format/Info                              : Audio Coding 3
Commercial name                          : Dolby Digital
Codec ID                                 : A_AC3
Duration                                 : 1 h 51 min
Bit rate mode                            : Constant
Bit rate                                 : 640 kb/s
Channel(s)                               : 6 channels
Channel layout                           : L R C LFE Ls Rs
Sampling rate                            : 48.0 kHz
Frame rate                               : 31.250 FPS (1536 SPF)
Compression mode                         : Lossy
Stream size                              : 510 MiB (12%)
Language                                 : English
Service kind                             : Complete Main
Default                                  : Yes
Forced                                   : No

Text #1
ID                                       : 3
Format                                   : PGS
Muxing mode                              : zlib
Codec ID                                 : S_HDMV/PGS
Codec ID/Info                            : Picture based subtitle format used on BDs/HD-DVDs
Duration                                 : 1 h 47 min
Bit rate                                 : 36.8 kb/s
Count of elements                        : 2631
Stream size                              : 28.3 MiB (1%)
Title                                    : English SDH
Language                                 : English
Default                                  : No
Forced                                   : No

Text #2
ID                                       : 4
Format                                   : PGS
Muxing mode                              : zlib
Codec ID                                 : S_HDMV/PGS
Codec ID/Info                            : Picture based subtitle format used on BDs/HD-DVDs
Duration                                 : 1 h 49 min
Bit rate                                 : 29.7 kb/s
Count of elements                        : 2350
Stream size                              : 23.3 MiB (1%)
Title                                    : Spanish
Language                                 : Spanish
Default                                  : No
Forced                                   : No

Text #3
ID                                       : 5
Format                                   : PGS
Muxing mode                              : zlib
Codec ID                                 : S_HDMV/PGS
Codec ID/Info                            : Picture based subtitle format used on BDs/HD-DVDs
Duration                                 : 1 h 33 min
Bit rate                                 : 128 b/s
Count of elements                        : 6
Stream size                              : 88.7 KiB (0%)
Title                                    : Spanish
Language                                 : Spanish
Default                                  : No
Forced                                   : No

Menu
00:00:00.000                             : en:Chapter 01
00:05:20.487                             : en:Chapter 02
00:09:02.041                             : en:Chapter 03
00:16:36.204                             : en:Chapter 04
00:20:18.092                             : en:Chapter 05
00:23:23.819                             : en:Chapter 06
00:31:04.404                             : en:Chapter 07
00:37:41.176                             : en:Chapter 08
00:43:58.803                             : en:Chapter 09
00:48:45.172                             : en:Chapter 10
00:54:17.713                             : en:Chapter 11
01:00:18.615                             : en:Chapter 12
01:07:48.481                             : en:Chapter 13
01:13:34.201                             : en:Chapter 14
01:18:26.744                             : en:Chapter 15
01:21:35.766                             : en:Chapter 16
01:28:04.613                             : en:Chapter 17
01:32:26.666                             : en:Chapter 18
01:38:31.739                             : en:Chapter 19
01:46:18.163                             : en:Chapter 20
01:51:29.266                             : en:Chapter 21

ceeb02c409b630b1542da3cd2209367e.jpg





                                                                                                                                                                                                        
                                                                                                                                                                                                                                                                                                                                                                                                                                                                                                                                                                                                                                                                                                                                                                                                                                                        
c7df4abe6af79e335aee387c6802bc07.torrent (21.94 KB, 下载次数: 0)

回复

使用道具 举报

小黑屋|西西论坛

本网站所有资源来自网络,如无意中侵犯了您的权益,请发邮件至 [email protected],立即清除相关链接

GMT+8, 2022-6-27 04:54 , Processed in 0.100338 second(s), 17 queries .

Powered by Discuz! X3.2

© 2001-2013 Comsenz Inc.

快速回复 返回顶部 返回列表