西西论坛

 找回密码
 立即注册
搜索

他们什么也没做电影版:日本流行风暴 People.Just.Do.Nothing.Big.In.Japan.2021.720p. ...

[复制链接]
admin 发表于 2021-12-16 18:46:00 | 显示全部楼层 |阅读模式
他们什么也没做电影版:日本流行风暴 People.Just.Do.Nothing.Big.In.Japan.2021.720p.BluRay.x264-ERMM                                                                                                                                                                                                                                                                                                                                                                                                                                                                                                                                        -->
帖子完整标题:他们什么也没做电影版:日本流行风暴 People.Just.Do.Nothing.Big.In.Japan.2021.720p.BluRay.x264-ERMM 2.89GB



eb264e99748a0f894ca433a5c5073ca5.jpg



◎译  名 他们什么也没做电影版:日本流行风暴
◎片  名 People Just Do Nothing: Big in Japan
◎年  代 2020
◎产  地 英国
◎类  别 喜剧
◎语  言 英语
◎上映日期 
◎豆瓣评分 /10 from 0 users
◎豆瓣链接 

◎标  签 不ㄨ相ㄨ关ㄨ的ㄨ胡ㄨ言ㄨ乱ㄨ语

◎简  介

  Since the end of their pirate radio station, life has been quiet for the Kurupt FM boys, but everything is about to change. News reaches them that one of their songs has been used on a popular game show in Japan. They've made it. Their music is reaching hundreds of thousands of people. It's finally time for them to enjoy the fame and fortune that they've always known they deserved. Chabuddy G steps excitedly back into his management role as Grindah, Beats, Steves and Decoy begin their journey to international stardom - But is Japan really ready for Kurupt FM?
Video
ID                                       : 1
Format                                   : AVC
Format/Info                              : Advanced Video Codec
Format profile                           :
Format settings                          : CABAC / 8 Ref Frames
Format settings, CABAC                   : Yes
Format settings, Reference frames        : 8 frames
Codec ID                                 : V_MPEG4/ISO/AVC
Duration                                 : 1 h 36 min
Bit rate                                 : 3 601 kb/s
Width                                    : 1 280 pixels
Height                                   : 536 pixels
Display aspect ratio                     : 2.40:1
Frame rate mode                          : Constant
Frame rate                               : 23.976 (24000/1001/189150) FPS
Color space                              : YUV
Chroma subsampling                       : 4:2:0
Bit depth                                : 8 bits
Scan type                                : Progressive
Bits/(Pixel*Frame)                       : 0.219
Stream size                              : 2.43 GiB (84%)
Writing library                          : x264 core 164 r3079 d9a19f0
Encoding settings                        : cabac=1 / ref=8 / deblock=1:-3:-3 / analyse=0x3:0x133 / me=umh / subme=9 / psy=1 / psy_rd=1.00:0.00 / mixed_ref=1 / me_range=16 / chroma_me=1 / trellis=2 / 8x8dct=1 / cqm=0 / deadzone=21,11 / fast_pskip=0 / chroma_qp_offset=-2 / threads=6 / lookahead_threads=1 / sliced_threads=0 / nr=0 / decimate=0 / interlaced=0 / bluray_compat=0 / constrained_intra=0 / bframes=3 / b_pyramid=2 / b_adapt=2 / b_bias=0 / direct=3 / weightb=1 / open_gop=0 / weightp=2 / keyint=250 / keyint_min=23 / scenecut=40 / intra_refresh=0 / rc_lookahead=60 / rc=crf / mbtree=1 / crf=17.0 / qcomp=0.60 / qpmin=0 / qpmax=69 / qpstep=4 / ip_ratio=1.40 / aq=3:0.60
Language                                 : English
Default                                  : Yes
Forced                                   : No

Audio
ID                                       : 2
Format                                   : AC-3
Format/Info                              : Audio Coding 3
Commercial name                          : Dolby Digital
Codec ID                                 : A_AC3
Duration                                 : 1 h 36 min
Bit rate mode                            : Constant
Bit rate                                 : 640 kb/s
Channel(s)                               : 6 channels
Channel layout                           : L R C LFE Ls Rs
Sampling rate                            : 48.0 kHz
Frame rate                               : 31.250 FPS (1536 SPF)
Compression mode                         : Lossy
Stream size                              : 443 MiB (15%)
Language                                 : English
Service kind                             : Complete Main
Default                                  : Yes
Forced                                   : No

Text #1
ID                                       : 3
Format                                   : PGS
Muxing mode                              : zlib
Codec ID                                 : S_HDMV/PGS
Codec ID/Info                            : Picture based subtitle format used on BDs/HD-DVDs
Duration                                 : 1 h 36 min
Bit rate                                 : 31.9 kb/s
Count of elements                        : 4498
Stream size                              : 22.1 MiB (1%)
Title                                    : English SDH
Language                                 : English
Default                                  : No
Forced                                   : No

Text #2
ID                                       : 4
Format                                   : UTF-8
Codec ID                                 : S_TEXT/UTF8
Codec ID/Info                            : UTF-8 Plain Text
Duration                                 : 1 h 32 min
Bit rate                                 : 109 b/s
Count of elements                        : 2116
Stream size                              : 74.0 KiB (0%)
Title                                    : English Non-SDH
Language                                 : English
Default                                  : No
Forced                                   : No

Text #3
ID                                       : 5
Format                                   : UTF-8
Codec ID                                 : S_TEXT/UTF8
Codec ID/Info                            : UTF-8 Plain Text
Duration                                 : 1 h 33 min
Bit rate                                 : 118 b/s
Count of elements                        : 2247
Stream size                              : 80.5 KiB (0%)
Title                                    : English SDH
Language                                 : English
Default                                  : No
Forced                                   : No

Menu
00:00:00.000                             : en:00:00:00.000
00:05:57.732                             : en:00:05:57.732
00:16:15.433                             : en:00:16:15.433
00:22:28.889                             : en:00:22:28.889
00:29:40.988                             : en:00:29:40.988
00:39:51.264                             : en:00:39:51.264
00:48:04.006                             : en:00:48:04.006
00:55:05.177                             : en:00:55:05.177
01:02:20.904                             : en:01:02:20.904
01:11:50.598                             : en:01:11:50.598
01:23:28.086                             : en:01:23:28.086
01:30:27.672                             : en:01:30:27.672

3d71cef28ae7e5bf6d0282a5ed3d98c1.jpg





                                                                                                                                                                                                        
                                                                                                                                                                                                                                                                                                                                                                                                                                                                                                                                                                                                                                                                                                                                                                                                                                                        
61d14d4ac2bc4a74693adcbb6f5a5833.torrent (29.66 KB, 下载次数: 0)

回复

使用道具 举报

小黑屋|西西论坛

本网站所有资源来自网络,如无意中侵犯了您的权益,请发邮件至 [email protected],立即清除相关链接

GMT+8, 2022-6-27 04:34 , Processed in 0.112646 second(s), 17 queries .

Powered by Discuz! X3.2

© 2001-2013 Comsenz Inc.

快速回复 返回顶部 返回列表