西西论坛

 找回密码
 立即注册
搜索

吸血鬼猎人-Kronos队长 Captain.Kronos.Vampire.Hunter.1974.iNTERNAL.720p.BluRay.x2 ...

[复制链接]
admin 发表于 2021-12-16 00:45:14 | 显示全部楼层 |阅读模式
吸血鬼猎人-Kronos队长 Captain.Kronos.Vampire.Hunter.1974.iNTERNAL.720p.BluRay.x264-PEGA                                                                                                                                                                                                                                                                                                                                                                                                                                                                                                                                        -->
帖子完整标题:吸血鬼猎人-Kronos队长 Captain.Kronos.Vampire.Hunter.1974.iNTERNAL.720p.BluRay.x264-PEGASUS 5.09GB





◎译  名 吸血鬼猎人-Kronos队长
◎片  名 Captain Kronos - Vampire Hunter
◎年  代 1974
◎产  地 英国
◎类  别 恐怖 / 冒险
◎语  言 英语
◎上映日期 1974-04-07
◎豆瓣评分 /10 from 0 users
◎豆瓣链接 
◎片  长 91 分钟
◎编  剧 布莱恩·克莱门斯 Brian Clemens
◎主  演 霍斯特·扬松 Horst Janson
       约翰·卡森 John Carson
       谢恩·布赖恩特 Shane Briant
       卡罗琳·莫罗 Caroline Munro
       约翰·卡特 John Cater
       伊恩·亨德里 Ian Hendry
       婉妲·泛森 Wanda Ventham
       Robert James Robert James
       Neil Seiler Neil Seiler
       Caroline Villiers Caroline Villiers
       Julian Holloway Julian Holloway
       约翰·霍林斯 John Hollis
       Paul Greenwood Paul Greenwood
       William Hobbs William Hobbs
       洛伊丝·戴恩 Lois Daine

◎标  签 吸血鬼 | 恐怖 | 英国 | 英国电影 | 惊悚 | cult | 魔幻 | 荒诞怪诞与惊悚

◎简  介

  吸血鬼猎人-Kronos队长和助手接到好友的求助信,在某个村落里发生了多起美貌少女瞬间衰老致死的恐怖事件。Kronos队长到了之后,通过布局分析,将目光锁定在了当地领主的身上……
Video
ID                                       : 1
Format                                   : AVC
Format/Info                              : Advanced Video Codec
Format profile                           :
Format settings                          : CABAC / 9 Ref Frames
Format settings, CABAC                   : Yes
Format settings, Reference frames        : 9 frames
Codec ID                                 : V_MPEG4/ISO/AVC
Duration                                 : 1 h 31 min
Bit rate                                 : 7 505 kb/s
Width                                    : 1 280 pixels
Height                                   : 692 pixels
Display aspect ratio                     : 1.85:1
Frame rate mode                          : Constant
Frame rate                               : 23.976 (24000/1001/189150) FPS
Color space                              : YUV
Chroma subsampling                       : 4:2:0
Bit depth                                : 8 bits
Scan type                                : Progressive
Bits/(Pixel*Frame)                       : 0.353
Stream size                              : 4.78 GiB (94%)
Writing library                          : x264 core 163 r3059 b684ebe0
Encoding settings                        : cabac=1 / ref=9 / deblock=1:-3:-3 / analyse=0x3:0x133 / me=umh / subme=10 / psy=1 / psy_rd=1.00:0.00 / mixed_ref=1 / me_range=32 / chroma_me=1 / trellis=2 / 8x8dct=1 / cqm=0 / deadzone=21,11 / fast_pskip=0 / chroma_qp_offset=-2 / threads=22 / lookahead_threads=5 / sliced_threads=0 / nr=0 / decimate=0 / interlaced=0 / bluray_compat=0 / constrained_intra=0 / bframes=16 / b_pyramid=2 / b_adapt=2 / b_bias=0 / direct=3 / weightb=1 / open_gop=0 / weightp=2 / keyint=240 / keyint_min=24 / scenecut=40 / intra_refresh=0 / rc_lookahead=60 / rc=crf / mbtree=0 / crf=17.5 / qcomp=0.60 / qpmin=0 / qpmax=69 / qpstep=4 / vbv_maxrate=62500 / vbv_bufsize=78125 / crf_max=0.0 / nal_hrd=none / filler=0 / ip_ratio=1.40 / pb_ratio=1.30 / aq=2:1.00
Default                                  : Yes
Forced                                   : No
Color range                              : Limited
Color primaries                          : BT.709
Transfer characteristics                 : BT.709
Matrix coefficients                      : BT.709

Audio #1
ID                                       : 2
Format                                   : FLAC
Format/Info                              : Free Lossless Audio Codec
Codec ID                                 : A_FLAC
Duration                                 : 1 h 31 min
Bit rate mode                            : Variable
Bit rate                                 : 334 kb/s
Channel(s)                               : 2 channels
Channel layout                           : L R
Sampling rate                            : 48.0 kHz
Frame rate                               : 11.719 FPS (4096 SPF)
Bit depth                                : 16 bits
Compression mode                         : Lossless
Stream size                              : 218 MiB (4%)
Writing library                          : libFLAC 1.2.1 (UTC 2007-09-17)
Language                                 : English
Default                                  : Yes
Forced                                   : No

Audio #2
ID                                       : 3
Format                                   : AAC LC
Format/Info                              : Advanced Audio Codec Low Complexity
Codec ID                                 : A_AAC-2
Duration                                 : 1 h 31 min
Bit rate                                 : 74.4 kb/s
Channel(s)                               : 2 channels
Channel layout                           : L R
Sampling rate                            : 48.0 kHz
Frame rate                               : 46.875 FPS (1024 SPF)
Compression mode                         : Lossy
Stream size                              : 48.5 MiB (1%)
Title                                    : Commentary with author Bruce G. Hallenbeck
Language                                 : English
Default                                  : No
Forced                                   : No

Audio #3
ID                                       : 4
Format                                   : AAC LC
Format/Info                              : Advanced Audio Codec Low Complexity
Codec ID                                 : A_AAC-2
Duration                                 : 1 h 31 min
Bit rate                                 : 72.0 kb/s
Channel(s)                               : 2 channels
Channel layout                           : L R
Sampling rate                            : 48.0 kHz
Frame rate                               : 46.875 FPS (1024 SPF)
Compression mode                         : Lossy
Stream size                              : 47.7 MiB (1%)
Title                                    : Commentary With Brian Clemens, Caroline Munro, and Hammer Films Historian Jonathan Sothcott
Language                                 : English
Default                                  : No
Forced                                   : No

Text
ID                                       : 5
Format                                   : UTF-8
Codec ID                                 : S_TEXT/UTF8
Codec ID/Info                            : UTF-8 Plain Text
Duration                                 : 1 h 29 min
Bit rate                                 : 30 b/s
Count of elements                        : 987
Stream size                              : 20.2 KiB (0%)
Title                                    : SDH
Language                                 : English
Default                                  : No
Forced                                   : No

Menu
00:00:00.000                             : :Chapter 1
00:07:23.109                             : :Chapter 2
00:16:15.224                             : :Chapter 3
00:22:42.319                             : :Chapter 4
00:28:21.950                             : :Chapter 5
00:36:20.804                             : :Chapter 6
00:43:52.338                             : :Chapter 7
00:52:22.389                             : :Chapter 8
01:00:52.399                             : :Chapter 9
01:07:40.431                             : :Chapter 10
01:14:43.062                             : :Chapter 11
01:22:59.641                             : :Chapter 12





                                                                                                                                                                                                        
                                                                                                                                                                                                                                                                                                                                                                                                                                                                                                                                                                                                                                                                                                                                                                                                                                                        
92dcfb493bf0b9a551f44b7926b48798.torrent (13.51 KB, 下载次数: 0)

回复

使用道具 举报

小黑屋|西西论坛

本网站所有资源来自网络,如无意中侵犯了您的权益,请发邮件至 [email protected],立即清除相关链接

GMT+8, 2022-1-20 04:36 , Processed in 0.133547 second(s), 17 queries .

Powered by Discuz! X3.2

© 2001-2013 Comsenz Inc.

快速回复 返回顶部 返回列表