西西论坛

 找回密码
 立即注册
搜索

新灵犬莱西 Lassie.1994.720p.BluRay.x264-GUACAMOLE 6.77GB

[复制链接]
admin 发表于 2021-12-15 10:44:31 | 显示全部楼层 |阅读模式
新灵犬莱西 Lassie.1994.720p.BluRay.x264-GUACAMOLE 6.77GB                                                                                                                                                                                                                                                                                                                                                                                                                                                                                                                                        -->
帖子完整标题:新灵犬莱西 Lassie.1994.720p.BluRay.x264-GUACAMOLE 6.77GB



14a2fdd4e857bf35c0fe2bd17a5248cc.jpg



◎译  名 新灵犬莱西
◎片  名 Lassie
◎年  代 1994
◎产  地 美国
◎类  别 剧情 / 冒险
◎语  言 英语
◎上映日期 1994-07-22
◎豆瓣评分 8.4/10 from 1201 users
◎豆瓣链接 
◎片  长 94 分钟
◎导  演 丹尼尔·皮特里 Daniel Petrie
◎编  剧 马修·雅各布斯 Matthew Jacobs / 埃里克·奈特 Eric Knight / 盖瑞·罗斯 Gary Ross
◎主  演 汤姆·盖里 Tom Guiry
       海伦·斯雷特 Helen Slater
       乔恩·坦尼 Jon Tenney
       Katie Massa Katie Massa
       Kelly L. Edwards Kelly L. Edwards
       理查德·法恩斯沃斯 Richard Farnsworth
       米歇尔·威廉姆斯 Michelle Williams
       弗雷德里克·福瑞斯特 Frederic Forrest
       查理·霍夫赫梅尔 Charlie Hofheimer

◎标  签 狗狗 | 动物 | 美国 | 温情 | 美国电影 | 灵犬莱西 | 新灵犬莱西 | 1994

◎简  介

  决心开始新生活的透纳一家,离开了繁华的大都市来到维吉尼亚山间居住。然而家中每个成员或多或少都有自身的问题需要解决。尤其是正值青春叛逆期的儿子麦特(汤姆·盖里 Tom Guiry饰),面对新环境他感到深深的孤独和迷失。幸运的是,一只无家可归的牧羊犬走进了他们的生活。这位家庭里的新成员不仅坚定忠诚,保护着麦特和透纳一家的安全,而且聪明到甚至通晓人性。透纳一家因为这只非凡的灵犬莱西,而渐渐凝聚在了一起。
  
  1994年版的电影《新灵犬莱西》,再一次将灵犬莱西的传奇故事搬上荧幕。自1943年首次将它的冒险经历拍摄成电影之后,灵犬莱西的经历成为日后拍摄的最长盛不衰的故事之一。在人际关系疏离、暴力充斥的90年代,本片着实是一部适合全家观赏的温馨感人之剧。
Video
ID                                       : 1
Format                                   : AVC
Format/Info                              : Advanced Video Codec
Format profile                           :
Format settings                          : CABAC / 8 Ref Frames
Format settings, CABAC                   : Yes
Format settings, Reference frames        : 8 frames
Codec ID                                 : V_MPEG4/ISO/AVC
Duration                                 : 1 h 35 min
Bit rate                                 : 9 505 kb/s
Width                                    : 1 280 pixels
Height                                   : 720 pixels
Display aspect ratio                     : 16:9
Frame rate mode                          : Constant
Frame rate                               : 23.976 (24000/1001/189150) FPS
Color space                              : YUV
Chroma subsampling                       : 4:2:0
Bit depth                                : 8 bits
Scan type                                : Progressive
Bits/(Pixel*Frame)                       : 0.430
Stream size                              : 6.31 GiB (93%)
Writing library                          : x264 core 164 r3075 66a5bc1
Encoding settings                        : cabac=1 / ref=8 / deblock=1:-3:-3 / analyse=0x3:0x133 / me=umh / subme=9 / psy=1 / psy_rd=1.00:0.00 / mixed_ref=1 / me_range=16 / chroma_me=1 / trellis=2 / 8x8dct=1 / cqm=0 / deadzone=21,11 / fast_pskip=0 / chroma_qp_offset=-2 / threads=22 / lookahead_threads=1 / sliced_threads=0 / nr=0 / decimate=1 / interlaced=0 / bluray_compat=0 / constrained_intra=0 / bframes=3 / b_pyramid=2 / b_adapt=2 / b_bias=0 / direct=3 / weightb=1 / open_gop=0 / weightp=2 / keyint=250 / keyint_min=23 / scenecut=40 / intra_refresh=0 / rc_lookahead=60 / rc=crf / mbtree=1 / crf=17.0 / qcomp=0.60 / qpmin=0 / qpmax=69 / qpstep=4 / ip_ratio=1.40 / aq=3:0.60
Default                                  : Yes
Forced                                   : No
Color range                              : Limited
Matrix coefficients                      : BT.709

Audio
ID                                       : 2
Format                                   : AC-3
Format/Info                              : Audio Coding 3
Commercial name                          : Dolby Digital
Codec ID                                 : A_AC3
Duration                                 : 1 h 35 min
Bit rate mode                            : Constant
Bit rate                                 : 640 kb/s
Channel(s)                               : 6 channels
Channel layout                           : L R C LFE Ls Rs
Sampling rate                            : 48.0 kHz
Frame rate                               : 31.250 FPS (1536 SPF)
Compression mode                         : Lossy
Stream size                              : 435 MiB (6%)
Language                                 : English
Service kind                             : Complete Main
Default                                  : Yes
Forced                                   : No

Text #1
ID                                       : 3
Format                                   : PGS
Muxing mode                              : zlib
Codec ID                                 : S_HDMV/PGS
Codec ID/Info                            : Picture based subtitle format used on BDs/HD-DVDs
Duration                                 : 1 h 28 min
Bit rate                                 : 29.7 kb/s
Count of elements                        : 1668
Stream size                              : 18.7 MiB (0%)
Language                                 : English
Default                                  : No
Forced                                   : No

Text #2
ID                                       : 4
Format                                   : PGS
Muxing mode                              : zlib
Codec ID                                 : S_HDMV/PGS
Codec ID/Info                            : Picture based subtitle format used on BDs/HD-DVDs
Duration                                 : 1 h 29 min
Bit rate                                 : 34.2 kb/s
Count of elements                        : 1959
Stream size                              : 22.0 MiB (0%)
Language                                 : English
Default                                  : No
Forced                                   : No

Text #3
ID                                       : 5
Format                                   : PGS
Muxing mode                              : zlib
Codec ID                                 : S_HDMV/PGS
Codec ID/Info                            : Picture based subtitle format used on BDs/HD-DVDs
Duration                                 : 1 h 32 min
Bit rate                                 : 25.7 kb/s
Count of elements                        : 1458
Stream size                              : 17.0 MiB (0%)
Language                                 : German
Default                                  : No
Forced                                   : No

Text #4
ID                                       : 6
Format                                   : PGS
Muxing mode                              : zlib
Codec ID                                 : S_HDMV/PGS
Codec ID/Info                            : Picture based subtitle format used on BDs/HD-DVDs
Duration                                 : 1 h 32 min
Bit rate                                 : 24.7 kb/s
Count of elements                        : 1438
Stream size                              : 16.4 MiB (0%)
Language                                 : French
Default                                  : No
Forced                                   : No

Text #5
ID                                       : 7
Format                                   : PGS
Muxing mode                              : zlib
Codec ID                                 : S_HDMV/PGS
Codec ID/Info                            : Picture based subtitle format used on BDs/HD-DVDs
Duration                                 : 27 min 1 s
Bit rate                                 : 110 b/s
Count of elements                        : 4
Stream size                              : 21.9 KiB (0%)
Language                                 : German
Default                                  : No
Forced                                   : No

Text #6
ID                                       : 8
Format                                   : PGS
Muxing mode                              : zlib
Codec ID                                 : S_HDMV/PGS
Codec ID/Info                            : Picture based subtitle format used on BDs/HD-DVDs
Duration                                 : 27 min 1 s
Bit rate                                 : 119 b/s
Count of elements                        : 4
Stream size                              : 23.7 KiB (0%)
Language                                 : French
Default                                  : No
Forced                                   : No

Menu
00:00:00.000                             : en:00:00:00.000
00:05:18.151                             : en:00:05:18.151
00:11:12.505                             : en:00:11:12.505
00:18:18.097                             : en:00:18:18.097
00:31:09.409                             : en:00:31:09.409
00:39:42.463                             : en:00:39:42.463
00:56:46.778                             : en:00:56:46.778
01:06:34.657                             : en:01:06:34.657
01:11:27.658                             : en:01:11:27.658
01:18:25.743                             : en:01:18:25.743
01:25:54.107                             : en:01:25:54.107

78e55c811be4c4650a038d3d8f9516b2.jpg





                                                                                                                                                                                                        
                                                                                                                                                                                                                                                                                                                                                                                                                                                                                                                                                                                                                                                                                                                                                                                                                                                        
c6975dd72bef84d269d73633e19f32ef.torrent (17.6 KB, 下载次数: 0)

回复

使用道具 举报

小黑屋|西西论坛

本网站所有资源来自网络,如无意中侵犯了您的权益,请发邮件至 [email protected],立即清除相关链接

GMT+8, 2022-6-27 04:52 , Processed in 0.103569 second(s), 17 queries .

Powered by Discuz! X3.2

© 2001-2013 Comsenz Inc.

快速回复 返回顶部 返回列表