西西论坛

 找回密码
 立即注册
搜索

传家宝 The.Cleaner.2021.720p.BluRay.x264-MiMiC 3.97GB

[复制链接]
admin 发表于 2021-12-14 10:43:33 | 显示全部楼层 |阅读模式
传家宝 The.Cleaner.2021.720p.BluRay.x264-MiMiC 3.97GB                                                                                                                                                                                                                                                                                                                                                                                                                                                                                                                                        -->
帖子完整标题:传家宝 The.Cleaner.2021.720p.BluRay.x264-MiMiC 3.97GB



a032ddd485a8c46ee850ade8531c22c1.jpg



◎译  名 传家宝/The Cleaner
◎片  名 Heirlooms
◎年  代 2021
◎产  地 美国
◎类  别 剧情 / 喜剧 / 动作 / 犯罪
◎语  言 英语
◎上映日期 2021-09-25(卡特琳娜电影节) / 2021-10-12(美国)
◎豆瓣评分 /10 from 0 users
◎豆瓣链接 
◎片  长 93分钟
◎导  演 艾琳·埃尔德斯 Erin Elders
◎编  剧 艾琳·埃尔德斯 Erin Elders
◎主  演 谢莉·朗 Shelley Long
       卢克·威尔逊 Luke Wilson
       琳达·卡特 Lynda Carter
       索蕾尔·默恩·弗莱 Soleil Moon Frye
       迈克·斯塔尔 Mike Starr
       希瑟·麦克柯布 Heather McComb
       诺尔·古格雷米 Noel Gugliemi
       奥利弗·库珀 Oliver Cooper
       伊登·布洛林 Eden Brolin
       迈克·康纳·盖尼 M.C. Gainey
       马修·卡德罗普 Matthew Cardarople
       詹姆斯·帕克斯顿 James Paxton
       霍珀·潘 Hopper Penn
       克雷格·斯塔克 Craig Stark
       朗·罗格 Ron Roggé
       布兰迪·波西 Brandie Posey
       杰森·博格斯 Jason Boggs
       Milena Govich Milena Govich

◎标  签 犯罪 | 喜剧 | 动作 | 剧情 | 詹姆斯·帕克斯顿 | 美国电影 | 美国 | 电影

◎简  介

  一名挣扎中的中年清洁工在被雇来寻找客户疏远的儿子后,陷入暴力犯罪。
Video
ID                                       : 1
Format                                   : AVC
Format/Info                              : Advanced Video Codec
Format profile                           :
Format settings                          : CABAC / 8 Ref Frames
Format settings, CABAC                   : Yes
Format settings, Reference frames        : 8 frames
Codec ID                                 : V_MPEG4/ISO/AVC
Duration                                 : 1 h 33 min
Bit rate                                 : 5 546 kb/s
Width                                    : 1 280 pixels
Height                                   : 720 pixels
Display aspect ratio                     : 16:9
Frame rate mode                          : Constant
Frame rate                               : 23.976 (24000/1001/189150) FPS
Color space                              : YUV
Chroma subsampling                       : 4:2:0
Bit depth                                : 8 bits
Scan type                                : Progressive
Bits/(Pixel*Frame)                       : 0.251
Stream size                              : 3.61 GiB (91%)
Writing library                          : x264 core 164 r3075 66a5bc1
Encoding settings                        : cabac=1 / ref=8 / deblock=1:0:0 / analyse=0x3:0x133 / me=umh / subme=9 / psy=1 / psy_rd=1.00:0.00 / mixed_ref=1 / me_range=16 / chroma_me=1 / trellis=2 / 8x8dct=1 / cqm=0 / deadzone=21,11 / fast_pskip=0 / chroma_qp_offset=-2 / threads=22 / lookahead_threads=1 / sliced_threads=0 / nr=0 / decimate=0 / interlaced=0 / bluray_compat=0 / constrained_intra=0 / bframes=3 / b_pyramid=2 / b_adapt=2 / b_bias=0 / direct=3 / weightb=1 / open_gop=0 / weightp=2 / keyint=240 / keyint_min=23 / scenecut=40 / intra_refresh=0 / rc=crf / mbtree=0 / crf=17.0 / qcomp=0.60 / qpmin=0 / qpmax=69 / qpstep=4 / ip_ratio=1.40 / pb_ratio=1.30 / aq=1:1.00
Default                                  : Yes
Forced                                   : No
Color range                              : Limited
Matrix coefficients                      : BT.709

Audio
ID                                       : 2
Format                                   : FLAC
Format/Info                              : Free Lossless Audio Codec
Codec ID                                 : A_FLAC
Duration                                 : 1 h 33 min
Bit rate mode                            : Variable
Bit rate                                 : 553 kb/s
Channel(s)                               : 2 channels
Channel layout                           : L R
Sampling rate                            : 48.0 kHz
Frame rate                               : 10.417 FPS (4608 SPF)
Bit depth                                : 24 bits
Compression mode                         : Lossless
Stream size                              : 368 MiB (9%)
Writing library                          : Lavf58.76.100
Language                                 : English
Default                                  : Yes
Forced                                   : No

Text
ID                                       : 3
Format                                   : PGS
Muxing mode                              : zlib
Codec ID                                 : S_HDMV/PGS
Codec ID/Info                            : Picture based subtitle format used on BDs/HD-DVDs
Duration                                 : 1 h 31 min
Bit rate                                 : 23.9 kb/s
Count of elements                        : 2770
Stream size                              : 15.6 MiB (0%)
Language                                 : English
Default                                  : No
Forced                                   : No

Menu
00:00:00.000                             : en:Chapter 01
00:10:00.683                             : en:Chapter 02
00:20:01.992                             : en:Chapter 03
00:30:02.300                             : en:Chapter 04
00:40:02.859                             : en:Chapter 05
00:50:02.833                             : en:Chapter 06
01:00:03.975                             : en:Chapter 07
01:10:04.158                             : en:Chapter 08
01:20:05.300                             : en:Chapter 09
01:27:53.894                             : en:Chapter 10

e14081f6929140480d577d93f226133a.jpg





                                                                                                                                                                                                        
                                                                                                                                                                                                                                                                                                                                                                                                                                                                                                                                                                                                                                                                                                                                                                                                                                                        
746967e87f6ff0dc0a46e0fd9de0d4fb.torrent (15.04 KB, 下载次数: 0)

回复

使用道具 举报

小黑屋|西西论坛

本网站所有资源来自网络,如无意中侵犯了您的权益,请发邮件至 [email protected],立即清除相关链接

GMT+8, 2022-1-20 03:25 , Processed in 0.093799 second(s), 17 queries .

Powered by Discuz! X3.2

© 2001-2013 Comsenz Inc.

快速回复 返回顶部 返回列表