西西论坛

 找回密码
 立即注册
搜索

毒液2 Venom.Let.There.Be.Carnage.2021.720p.BluRay.x264-AAA 3.24GB

[复制链接]
admin 发表于 2021-12-13 22:43:25 | 显示全部楼层 |阅读模式
毒液2 Venom.Let.There.Be.Carnage.2021.720p.BluRay.x264-AAA 3.24GB                                                                                                                                                                                                                                                                                                                                                                                                                                                                                                                                        -->
帖子完整标题:毒液2 Venom.Let.There.Be.Carnage.2021.720p.BluRay.x264-AAA 3.24GB



51067f1cd9506812ba155b3c23216086.jpg



◎译  名 毒液2/Venom 2/毒液:屠杀开始/毒液:放纵屠杀/毒液2:屠杀将至/毒液2:屠杀开始/毒魔:血战大屠杀(港)/猛毒2:血蜘蛛(台)
◎片  名 Venom: Let There Be Carnage
◎年  代 2021
◎产  地 美国
◎类  别 动作 / 科幻 / 惊悚
◎语  言 英语
◎上映日期 2021(中国大陆) / 2021-10-01(美国) / 2021-10(英国)
◎豆瓣评分 5.0/10 from 80849 users
◎豆瓣链接 
◎片  长 97分钟
◎导  演 安迪·瑟金斯 Andy Serkis
◎编  剧 凯莉·马塞尔 Kelly Marcel / 汤姆·哈迪 Tom Hardy
◎主  演 汤姆·哈迪 Tom Hardy
       伍迪·哈里森 Woody Harrelson
       米歇尔·威廉姆斯 Michelle Williams
       娜奥米·哈里斯 Naomie Harris
       瑞德·斯科特 Reid Scott
       斯蒂芬·格拉汉姆 Stephen Graham
       汤姆·赫兰德 Tom Holland
       里斯·谢尔史密斯 Reece Shearsmith
       肖恩·德兰尼 Sean Delaney
       佩吉·陆 Peggy Lu
       劳伦斯·斯佩尔曼 Laurence Spellman
       杰克·班戴拉 Jack Bandeira
       斯克鲁比斯·皮普 Scroobius Pip
       阿姆·阿勒卡迪 Amrou Al-Kadhi
       斯图尔特·亚历山大 Stewart Alexander
       克里斯托弗戈德温 Christopher Godwin
       格雷戈·洛基特 Greg Lockett
       桑尼·阿什本·瑟金斯 Sonny Ashbourne Serkis
       雷切尔·汉德肖 Rachel Handshaw
       小田部阿基 Akie Kotabe
       埃里克·西格蒙德森 Eric Sigmundsson
       何塞?帕尔马 Jose Palma
       Rosie Marcel Rosie Marcel
       艾略特·凯博尔 Elliot Cable
       威廉·W·巴伯 William W. Barbour
       埃尔文·费利西达 Erwin Felicilda
       露丝·霍洛克斯 Ruth Horrocks
       约翰·洛巴托 John Lobato
       迪索·拉莫斯 Diezel Ramos
       迈克尔·安德鲁·里德 Michael Andrew Reed
       里克·理查森 Rick Richardson
       安珀·西耶娜 Amber Sienna
       艾蒂安·维克 Etienne Vick
       杰茜·维宁 Jessie Vinning
       中川翔子 Sh?ko Nakagawa

◎标  签 漫威 | 毒液 | 科幻 | 美国 | 超级英雄 | 动作 | 2021 | 漫画改编

◎简  介

  电影讲述了外星共生体“毒液”与宿主埃迪(汤姆·哈迪 饰)这对“最佳拍档”遇上致命反派共生体“卡内奇”(伍迪·哈里森 饰),超级英雄和邪恶反派的宿命之战即将开始。

◎获奖情况

  第7届豆瓣电影年度榜单 ?(2020)
  最值得期待的外语电影(提名)
  
  第6届豆瓣电影年度榜单 ?(2019)
  最值得期待的外语电影(提名)
Video
ID                                       : 1
Format                                   : AVC
Format/Info                              : Advanced Video Codec
Format profile                           :
Format settings                          : CABAC / 8 Ref Frames
Format settings, CABAC                   : Yes
Format settings, Reference frames        : 8 frames
Codec ID                                 : V_MPEG4/ISO/AVC
Duration                                 : 1 h 37 min
Bit rate                                 : 3 896 kb/s
Width                                    : 1 280 pixels
Height                                   : 692 pixels
Display aspect ratio                     : 1.85:1
Frame rate mode                          : Constant
Frame rate                               : 23.976 (24000/1001/189150) FPS
Color space                              : YUV
Chroma subsampling                       : 4:2:0
Bit depth                                : 8 bits
Scan type                                : Progressive
Bits/(Pixel*Frame)                       : 0.183
Stream size                              : 2.65 GiB (82%)
Writing library                          : x264 core 164 r3075 66a5bc1
Encoding settings                        : cabac=1 / ref=8 / deblock=1:-3:-3 / analyse=0x3:0x133 / me=umh / subme=9 / psy=1 / psy_rd=1.00:0.00 / mixed_ref=1 / me_range=24 / chroma_me=1 / trellis=2 / 8x8dct=1 / cqm=0 / deadzone=21,11 / fast_pskip=0 / chroma_qp_offset=-2 / threads=22 / lookahead_threads=2 / sliced_threads=0 / nr=0 / decimate=0 / interlaced=0 / bluray_compat=0 / constrained_intra=0 / bframes=5 / b_pyramid=2 / b_adapt=2 / b_bias=0 / direct=3 / weightb=1 / open_gop=0 / weightp=2 / keyint=250 / keyint_min=23 / scenecut=40 / intra_refresh=0 / rc_lookahead=60 / rc=crf / mbtree=0 / crf=17.0 / qcomp=0.60 / qpmin=0 / qpmax=69 / qpstep=4 / vbv_maxrate=62500 / vbv_bufsize=78125 / crf_max=0.0 / nal_hrd=none / filler=0 / ip_ratio=1.40 / pb_ratio=1.30 / aq=3:0.85
Default                                  : Yes
Forced                                   : No

Audio
ID                                       : 2
Format                                   : AC-3
Format/Info                              : Audio Coding 3
Commercial name                          : Dolby Digital
Codec ID                                 : A_AC3
Duration                                 : 1 h 37 min
Bit rate mode                            : Constant
Bit rate                                 : 640 kb/s
Channel(s)                               : 6 channels
Channel layout                           : L R C LFE Ls Rs
Sampling rate                            : 48.0 kHz
Frame rate                               : 31.250 FPS (1536 SPF)
Compression mode                         : Lossy
Stream size                              : 445 MiB (13%)
Language                                 : English
Service kind                             : Complete Main
Default                                  : Yes
Forced                                   : No

Text #1
ID                                       : 3
Format                                   : PGS
Muxing mode                              : zlib
Codec ID                                 : S_HDMV/PGS
Codec ID/Info                            : Picture based subtitle format used on BDs/HD-DVDs
Duration                                 : 1 h 27 min
Bit rate                                 : 31.9 kb/s
Count of elements                        : 2252
Stream size                              : 19.9 MiB (1%)
Language                                 : English
Default                                  : No
Forced                                   : No

Text #2
ID                                       : 4
Format                                   : PGS
Muxing mode                              : zlib
Codec ID                                 : S_HDMV/PGS
Codec ID/Info                            : Picture based subtitle format used on BDs/HD-DVDs
Duration                                 : 1 h 36 min
Bit rate                                 : 43.5 kb/s
Count of elements                        : 3258
Stream size                              : 30.1 MiB (1%)
Title                                    : SDH
Language                                 : English
Default                                  : No
Forced                                   : No

Text #3
ID                                       : 5
Format                                   : PGS
Muxing mode                              : zlib
Codec ID                                 : S_HDMV/PGS
Codec ID/Info                            : Picture based subtitle format used on BDs/HD-DVDs
Duration                                 : 1 h 36 min
Bit rate                                 : 26.5 kb/s
Count of elements                        : 2242
Stream size                              : 18.2 MiB (1%)
Language                                 : Bulgarian
Default                                  : No
Forced                                   : No

Text #4
ID                                       : 6
Format                                   : PGS
Muxing mode                              : zlib
Codec ID                                 : S_HDMV/PGS
Codec ID/Info                            : Picture based subtitle format used on BDs/HD-DVDs
Duration                                 : 1 h 36 min
Bit rate                                 : 26.2 kb/s
Count of elements                        : 2222
Stream size                              : 18.0 MiB (1%)
Language                                 : Czech
Default                                  : No
Forced                                   : No

Text #5
ID                                       : 7
Format                                   : PGS
Muxing mode                              : zlib
Codec ID                                 : S_HDMV/PGS
Codec ID/Info                            : Picture based subtitle format used on BDs/HD-DVDs
Duration                                 : 1 h 36 min
Bit rate                                 : 29.0 kb/s
Count of elements                        : 2212
Stream size                              : 19.9 MiB (1%)
Language                                 : Greek
Default                                  : No
Forced                                   : No

Text #6
ID                                       : 8
Format                                   : PGS
Muxing mode                              : zlib
Codec ID                                 : S_HDMV/PGS
Codec ID/Info                            : Picture based subtitle format used on BDs/HD-DVDs
Duration                                 : 1 h 36 min
Bit rate                                 : 28.3 kb/s
Count of elements                        : 2296
Stream size                              : 19.5 MiB (1%)
Language                                 : Hungarian
Default                                  : No
Forced                                   : No

Text #7
ID                                       : 9
Format                                   : PGS
Muxing mode                              : zlib
Codec ID                                 : S_HDMV/PGS
Codec ID/Info                            : Picture based subtitle format used on BDs/HD-DVDs
Duration                                 : 1 h 36 min
Bit rate                                 : 28.2 kb/s
Count of elements                        : 2114
Stream size                              : 19.4 MiB (1%)
Language                                 : Italian
Default                                  : No
Forced                                   : No

Text #8
ID                                       : 10
Format                                   : PGS
Muxing mode                              : zlib
Codec ID                                 : S_HDMV/PGS
Codec ID/Info                            : Picture based subtitle format used on BDs/HD-DVDs
Duration                                 : 1 h 36 min
Bit rate                                 : 27.1 kb/s
Count of elements                        : 2126
Stream size                              : 18.6 MiB (1%)
Language                                 : Polish
Default                                  : No
Forced                                   : No

Text #9
ID                                       : 11
Format                                   : PGS
Muxing mode                              : zlib
Codec ID                                 : S_HDMV/PGS
Codec ID/Info                            : Picture based subtitle format used on BDs/HD-DVDs
Duration                                 : 1 h 36 min
Bit rate                                 : 28.3 kb/s
Count of elements                        : 2146
Stream size                              : 19.5 MiB (1%)
Language                                 : Portuguese
Default                                  : No
Forced                                   : No

Text #10
ID                                       : 12
Format                                   : PGS
Muxing mode                              : zlib
Codec ID                                 : S_HDMV/PGS
Codec ID/Info                            : Picture based subtitle format used on BDs/HD-DVDs
Duration                                 : 1 h 36 min
Bit rate                                 : 27.5 kb/s
Count of elements                        : 2206
Stream size                              : 18.9 MiB (1%)
Language                                 : Romanian
Default                                  : No
Forced                                   : No

Text #11
ID                                       : 13
Format                                   : PGS
Muxing mode                              : zlib
Codec ID                                 : S_HDMV/PGS
Codec ID/Info                            : Picture based subtitle format used on BDs/HD-DVDs
Duration                                 : 1 h 36 min
Bit rate                                 : 27.3 kb/s
Count of elements                        : 2250
Stream size                              : 18.8 MiB (1%)
Language                                 : Serbian
Default                                  : No
Forced                                   : No

Text #12
ID                                       : 14
Format                                   : PGS
Muxing mode                              : zlib
Codec ID                                 : S_HDMV/PGS
Codec ID/Info                            : Picture based subtitle format used on BDs/HD-DVDs
Duration                                 : 1 h 36 min
Bit rate                                 : 25.1 kb/s
Count of elements                        : 2224
Stream size                              : 17.3 MiB (1%)
Language                                 : Slovak
Default                                  : No
Forced                                   : No

Text #13
ID                                       : 15
Format                                   : PGS
Muxing mode                              : zlib
Codec ID                                 : S_HDMV/PGS
Codec ID/Info                            : Picture based subtitle format used on BDs/HD-DVDs
Duration                                 : 1 h 36 min
Bit rate                                 : 23.4 kb/s
Count of elements                        : 1972
Stream size                              : 16.1 MiB (0%)
Language                                 : Slovenian
Default                                  : No
Forced                                   : No

Text #14
ID                                       : 16
Format                                   : PGS
Muxing mode                              : zlib
Codec ID                                 : S_HDMV/PGS
Codec ID/Info                            : Picture based subtitle format used on BDs/HD-DVDs
Duration                                 : 1 h 36 min
Bit rate                                 : 27.5 kb/s
Count of elements                        : 2118
Stream size                              : 18.9 MiB (1%)
Language                                 : Icelandic
Default                                  : No
Forced                                   : No

Text #15
ID                                       : 17
Format                                   : PGS
Muxing mode                              : zlib
Codec ID                                 : S_HDMV/PGS
Codec ID/Info                            : Picture based subtitle format used on BDs/HD-DVDs
Duration                                 : 1 h 36 min
Bit rate                                 : 26.2 kb/s
Count of elements                        : 2248
Stream size                              : 18.0 MiB (1%)
Language                                 : Croatian
Default                                  : No
Forced                                   : No

Text #16
ID                                       : 18
Format                                   : UTF-8
Codec ID                                 : S_TEXT/UTF8
Codec ID/Info                            : UTF-8 Plain Text
Duration                                 : 1 h 27 min
Bit rate                                 : 53 b/s
Count of elements                        : 1126
Stream size                              : 34.3 KiB (0%)
Language                                 : English
Default                                  : No
Forced                                   : No

Menu
00:00:00.000                             : :Chapter 01
00:05:24.991                             : :Chapter 02
00:09:33.239                             : :Chapter 03
00:12:20.406                             : :Chapter 04
00:18:23.436                             : :Chapter 05
00:23:01.213                             : :Chapter 06
00:30:17.858                             : :Chapter 07
00:35:03.601                             : :Chapter 08
00:39:26.781                             : :Chapter 09
00:45:35.066                             : :Chapter 10
00:50:40.329                             : :Chapter 11
00:55:29.826                             : :Chapter 12
01:01:01.032                             : :Chapter 13
01:06:57.639                             : :Chapter 14
01:14:36.681                             : :Chapter 15
01:21:57.579                             : :Chapter 16
01:28:51.159                             : :Chapter 17

f40667baf71cb14156b7b5f297873035.jpg





                                                                                                                                                                                                        
                                                                                                                                                                                                                                                                                                                                                                                                                                                                                                                                                                                                                                                                                                                                                                                                                                                        
37c776189d733bf3d7c0e0350b9a6ba1.torrent (16.96 KB, 下载次数: 0)

回复

使用道具 举报

小黑屋|西西论坛

本网站所有资源来自网络,如无意中侵犯了您的权益,请发邮件至 [email protected],立即清除相关链接

GMT+8, 2022-6-27 04:43 , Processed in 0.111618 second(s), 17 queries .

Powered by Discuz! X3.2

© 2001-2013 Comsenz Inc.

快速回复 返回顶部 返回列表